<?xml version="1.0" standalone="no"?>
<!DOCTYPE svg PUBLIC "-//W3C//DTD SVG 1.1//EN" "http://www.w3.org/Graphics/SVG/1.1/DTD/svg11.dtd" >
<svg xmlns="http://www.w3.org/2000/svg">
<metadata>Generated by IcoMoon</metadata>
<defs>
<font id="icomoon" horiz-adv-x="1024">
<font-face units-per-em="1024" ascent="960" descent="-64" />
<missing-glyph horiz-adv-x="1024" />
<glyph unicode="&#x20;" horiz-adv-x="512" d="" />
<glyph unicode="&#xe900;" glyph-name="card-size" d="M892.928 890.368v49.152h-196.608v-49.152h73.728v-639.386h-73.728v-49.152h196.608v49.152h-73.728v639.386h73.728zM524.288 79.36h-319.488v73.728h-49.152v-196.608h49.152v73.728h319.488v-73.728h49.152v196.608h-49.152v-73.728zM555.418 939.52h-334.848c-49.357 0-89.498-40.141-89.498-89.498v-558.899c0-49.357 40.141-89.498 89.498-89.498h334.848c23.142 0 43.827 8.806 59.802 23.142l17.203 21.094c7.578 13.107 12.288 28.672 12.288 45.056v559.104c0 49.357-40.141 89.498-89.498 89.498z" />
<glyph unicode="&#xe901;" glyph-name="puzzle-size" d="M128 275.968h260.71v75.571c-41.779 6.758-66.15 31.334-66.355 66.765-0.41 36.25 22.938 60.416 66.15 68.813v66.15h-99.738c0 10.854 0 20.48 0 30.31 0 21.094-14.336 36.25-33.792 36.045-19.456 0-32.973-14.95-33.178-36.454 0-10.035 0-19.866 0-30.72h-127.59v-243.098c0-18.637 15.155-33.792 33.792-33.792zM252.928 655.667c36.045 0.41 60.211-22.733 68.608-65.946h68.198v99.942c10.445 0 19.866 0 29.901 0 21.914 0 36.864 13.926 36.659 33.792-0.41 18.022-13.722 31.13-33.178 32.563-1.229 0.41-2.458 0.41-3.482 0.41-10.035 0-19.866 0-30.72 0v109.363h-260.915c-18.637 0-33.792-15.155-33.792-33.792v-242.893h91.955c6.758 41.779 31.334 66.15 66.765 66.355zM650.24 865.792h-227.123v-75.571h0.41c43.418-8.397 66.56-32.563 66.15-68.813 0-35.43-25.395-60.006-67.379-66.765v-65.331h100.966c0-11.264 0-21.709 0-31.949 0-18.432 11.674-31.949 27.853-34.816 1.638-0.41 3.686-0.41 5.734-0.41s3.891 0 5.734 0.41c15.77 2.867 27.443 16.589 27.648 34.816 0 10.035 0 20.070 0 31.334h93.798v243.302c0 18.637-15.155 33.792-33.792 33.792zM615.014 522.547c-11.878-23.962-32.358-36.454-58.778-36.25-25.805 0-45.67 13.107-57.344 36.25-4.506 8.602-7.578 18.637-9.421 30.106l-66.15 0.41v-30.515l-0.41-69.837h-30.515c-21.299 0-36.659-13.926-36.864-32.973-0.41-19.661 14.95-33.792 36.864-33.792h29.696v-99.942h1.229v-10.035h226.918c18.637 0 33.792 15.155 33.792 33.792v242.688h-59.187c-2.048-11.264-5.12-21.299-9.83-29.901zM634.88 153.088h-491.52v73.728h-49.152v-196.608h49.152v73.728h491.52v-73.728h49.152v196.608h-49.152v-73.728zM929.792 816.64v49.152h-196.608v-49.152h73.728v-491.52h-73.728v-49.152h196.608v49.152h-73.728v491.52h73.728z" />
<glyph unicode="&#xe902;" glyph-name="puzzle-thickness" d="M989.798 841.216v98.304h-281.19v-98.304h91.341v-786.432h-91.341v-98.304h281.19v98.304h-91.546v786.432h91.546zM492.749 939.52h-458.547v-983.040h556.851v983.040h-98.304zM132.506 791.040l50.176 50.176h205.414l-255.59-255.59v205.414zM132.506 446.976l360.243 360.243v-139.674l-360.243-360.038v139.674zM443.597 479.334l49.152 49.152v-139.674l-334.234-334.029h-26.010v113.459l311.091 311.296zM297.165 54.579l195.584 195.584v-140.083l-55.501-55.501h-140.083z" />
<glyph unicode="&#xe903;" glyph-name="cards-number" d="M964.198 649.114l-304.333 243.302c-19.251 15.77-42.189 23.142-65.331 23.142s-46.694-7.782-65.331-23.552c79.667-6.963 142.541-74.138 142.541-155.853v-619.93l308.634 385.843c36.454 45.261 29.082 110.592-16.179 147.046zM514.867 840.192h-390.144c-57.549 0-104.243-46.694-104.243-104.243v-651.264c0-57.549 46.694-104.243 104.243-104.243h390.144c27.034 0 51.2 10.24 69.837 27.034l20.070 24.576c8.806 15.155 14.336 33.382 14.336 52.634v651.264c0 57.549-46.694 104.243-104.243 104.243zM195.994 235.213c-18.227 0-39.322 3.482-50.586 8.806l-5.325 53.043c13.722-7.782 30.515-13.312 49.152-13.312s43.213 15.155 43.213 36.864-19.251 38.298-44.646 38.298-29.901-2.048-40.346-6.349l3.482 142.541h127.386l-11.264-48.742h-60.006l-1.434-41.37c2.458 0.41 7.373 0.41 9.83 0.41 38.912 0 78.643-29.901 78.643-83.149s-34.816-87.45-97.894-87.45zM499.302 300.544h-27.034v-60.006h-56.525v60.006h-96.87l-9.83 42.803 113.050 151.962h50.176v-147.046h27.034v-47.718zM416.154 417.485l1.024-1.024c-1.024-7.782-1.024-16.179-1.024-23.142v-45.67h-49.562l33.997 45.261c5.939 7.373 10.854 15.77 15.77 24.576z" />
<glyph unicode="&#xe904;" glyph-name="puzzle-pcs-numbers" d="M808.346 104.55c-14.131 118.989-90.112 194.355-194.15 196.198-107.93 1.843-185.139-71.885-202.547-194.56h-193.946v243.712c-31.539 0-60.621 0-89.907 0-62.464 0.41-107.11 40.96-107.315 97.69-0.205 57.139 43.827 98.099 106.291 98.509 28.672 0.205 57.139 0 90.112 0v220.979c0 13.517 10.854 24.371 24.371 24.371 253.952 0 507.904 0 762.061 0 0-228.762 0-457.523 0-686.285 0 0 0 0 0 0-65.126-0.41-127.795-0.205-194.97-0.205z" />
<glyph unicode="&#xe905;" glyph-name="pawns-number" d="M861.798 931.738c-83.354 27.238-172.851-18.227-200.090-101.581-16.589-50.586-5.939-103.219 23.347-143.155l-122.266-226.099-46.080 14.95-34.611-106.086 353.69-115.507 34.611 106.086-56.32 18.432 33.792 247.808c52.429 12.083 97.69 49.971 115.712 104.858 27.238 83.354-18.227 172.851-101.581 200.090zM533.709 227.43l-177.766 175.923c21.914 49.152 18.842 108.134-14.336 155.443-50.381 71.885-149.299 89.293-220.979 38.912-71.885-50.381-89.293-149.299-38.912-220.979 30.515-43.622 79.053-66.765 128.41-67.379l107.315-233.677-39.731-27.853 64.102-91.341 304.742 213.402-64.102 91.341-48.538-33.997z" />
<glyph unicode="&#xe906;" glyph-name="teens-icon" d="M415.334 229.274c-49.971 0-96.666 26.829-121.856 70.246l-47.923-27.648c35.021-60.416 99.942-97.894 169.574-97.894 73.728 0 140.493 40.755 174.285 106.496l-49.152 25.19c-24.166-47.104-72.090-76.39-124.928-76.39zM1003.52 606.72h-219.341c-56.32 169.779-200.090 290.816-369.050 290.816-217.907 0-394.65-201.318-394.65-449.536s176.742-449.536 394.854-449.536c218.112 0 394.854 201.318 394.854 449.536 0 16.179-0.819 32.358-2.253 48.128h195.584v110.592zM706.355 448c0-190.669-130.662-345.907-291.021-345.907s-291.226 155.238-291.226 345.907c0 16.384 1.229 32.358 3.072 48.128h93.389v-97.28h98.304v97.28h196.608v-97.28h98.304v97.28h89.293c2.048-15.77 3.277-31.744 3.277-48.128z" />
<glyph unicode="&#xe907;" glyph-name="adults-icon" d="M355.123 383.078v0c-27.238 0-49.152 21.914-49.152 49.152v0c0 27.238 21.914 49.152 49.152 49.152v0c27.238 0 49.152-21.914 49.152-49.152v0c0-27.034-21.914-49.152-49.152-49.152zM650.035 383.078v0c-27.238 0-49.152 21.914-49.152 49.152v0c0 27.238 21.914 49.152 49.152 49.152v0c27.238 0 49.152-21.914 49.152-49.152v0c0-27.034-21.914-49.152-49.152-49.152zM917.299 628.838c-5.325 146.432-447.283 427.213-638.976 196.608-136.602 0-196.198-253.542-161.792-290.406-6.963-32.973-10.24-67.379-10.24-102.81 0-248.218 176.538-449.331 394.65-449.331 217.702 0 394.24 201.114 394.24 449.331 0 34.816-3.482 68.813-9.83 101.171 32.358 12.288 33.382 60.006 31.949 95.437zM502.989 112.742c-39.731 0-79.053 24.166-100.762 61.44l42.803 24.576c10.24-18.227 31.949-36.864 57.958-36.864 24.576 0 46.285 13.312 56.934 35.84l44.237-22.528c-19.661-38.502-58.368-62.464-101.171-62.464zM773.325 311.194l-130.253-65.331c-29.491 45.261-82.534 81.101-140.083 81.101-51.61 0-96.87-23.142-127.386-59.392l-149.504 50.586c-10.854 35.84-16.794 74.138-16.794 114.074s5.939 78.234 16.794 114.074c56.934 16.794 115.917 51.2 128.205 117.965 0 0 102.195-113.050 424.755-131.277 7.782-31.949 12.698-65.946 12.698-100.762 0.205-42.803-6.144-83.558-18.432-121.037z" />
<glyph unicode="&#xe908;" glyph-name="packaging-icon" d="M813.056 536.269c-24.371 14.746-24.371 48.538 0 63.283l190.054 109.773-245.35 141.517-226.918-131.072c-5.12-3.686-11.878-5.12-18.432-5.12s-12.493 1.434-18.432 5.12l-36.864 21.299-189.44 109.773-246.784-141.517 190.054-109.773c24.986-13.926 24.986-48.742 0.819-63.283l-190.054-109.773 246.17-140.698v-98.304l245.35-141.517 245.35 141.517v98.304l245.35 140.698-190.874 109.773zM320.717 598.938l136.397 78.848c0.819 0 1.434 0.819 1.434 0.819l35.43 20.685c5.939 2.867 12.493 4.506 18.432 4.506s13.312-1.434 18.432-4.506l36.864-21.299 137.011-78.848c22.938-15.565 22.938-47.923-1.434-62.669l-134.758-77.414s-0.819 0-0.819-0.819l-36.045-20.685c-5.939-2.867-12.493-5.12-18.432-5.12s-12.493 2.253-18.432 5.12l-37.683 21.299-134.758 77.414c-23.552 13.926-24.986 47.923-1.434 62.669z" />
<glyph unicode="&#xe909;" glyph-name="skill-artistic" d="M894.566 371.61c-59.392-16.179-125.338-9.83-184.32 23.962-102.605 58.368-148.070 186.368-105.882 296.755 14.131 36.659 36.045 67.994 63.078 92.57 30.106 27.648 19.251 78.438-20.070 89.498-0.41 0.205-0.614 0.205-1.229 0.41-248.627 69.632-506.675-75.162-576.717-323.789s74.752-506.88 323.584-576.922c248.627-69.837 506.88 74.957 576.717 323.584 0.205 0.614 0.41 0.819 0.41 1.434 12.493 44.851-30.515 84.787-75.571 72.499zM252.109 651.366c19.661 43.418 71.27 62.669 114.688 42.803s62.669-71.27 42.803-114.893c-19.866-43.418-71.27-62.669-114.893-42.803s-62.464 71.475-42.598 114.893zM186.573 300.339c-43.418 19.866-62.464 71.27-42.598 114.893 19.866 43.418 71.27 62.464 114.688 42.803 43.418-19.866 62.669-71.27 42.803-114.893-19.866-43.418-71.27-62.669-114.893-42.803zM454.861 123.187c-19.866-43.622-71.27-62.669-114.688-42.803-43.622 19.866-62.669 71.27-42.803 114.688 19.866 43.622 71.27 62.669 114.893 42.803 43.418-20.070 62.464-71.27 42.598-114.688zM719.462 132.813c-19.866-43.418-71.27-62.669-114.893-42.803-43.418 19.866-62.464 71.27-42.803 114.893 19.866 43.418 71.27 62.669 114.893 42.803s62.874-71.475 42.803-114.893zM883.712 911.667l-87.654-188.826h0.41c29.082 6.758 59.392-3.891 78.029-27.443v0l87.654 188.826c7.578 21.709-3.891 45.261-25.6 52.838v0c-21.709 7.578-45.261-3.686-52.838-25.395zM729.702 639.078c13.926 40.141 57.754 61.645 97.894 47.718s61.645-57.754 47.718-97.894-84.992-64.717-100.762-147.046c-66.97 60.621-58.778 156.877-44.851 197.222z" />
<glyph unicode="&#xe90a;" glyph-name="skill-association" d="M342.835 69.939h242.893l27.238 75.776h-290.406l20.275-75.776zM467.763-43.52c41.574 0 75.162 33.587 75.162 75.162h-150.528c0-41.574 33.587-75.162 75.162-75.162zM814.49 676.966c-5.325 45.466-34.406 74.342-74.138 74.957-41.37 0.614-70.656-27.443-77.414-74.342h-74.138v93.184c-12.083 0-23.142 0-34.406 0-23.962 0-40.96 15.77-40.96 37.274 0 21.709 16.794 37.478 40.55 37.683 10.854 0 21.914 0 34.406 0v84.378c0 5.12 4.096 9.421 9.421 9.421 97.075 0 194.15 0 291.226 0 0-87.45 0-174.899 0-262.349 0 0 0 0 0 0-24.781 0-48.947 0-74.547 0zM472.064 338.637v-148.070h-168.755c0 17.613-48.947 133.734-83.354 168.96-53.248 54.477-79.462 122.47-84.787 198.246 0 1.843 0 3.686 0 6.554h149.709c0 12.083 0 23.142 0 34.406 0 23.962 15.565 40.755 37.274 40.96 21.709 0 37.478-16.794 37.888-40.55 0-10.854 0-21.914 0-33.997h112.026v-74.342c-48.742-9.216-74.752-36.454-74.342-77.21 0.41-39.731 27.648-67.174 74.547-74.957zM631.194 189.952h-120.422v186.982c-11.878 0-23.142 0-34.202 0-23.962 0-40.96 15.36-41.37 36.864-0.205 22.323 16.794 37.888 41.37 38.093 10.854 0 21.709 0 33.382 0v112.026h113.050c0 12.902 0 24.371 0 36.045 0.205 22.938 16.179 39.526 37.683 39.526 21.299 0 37.069-16.794 37.478-39.731 0-11.264 0-22.528 0-35.226h112.23c-1.638-43.213-11.264-82.944-28.467-121.037-23.142-51.405-58.368-92.979-102.4-127.59-22.938-18.022-48.333-107.11-48.333-125.952zM472.269 901.427v-92.57c-24.371-1.843-45.261-11.264-60.006-31.334-10.854-14.746-15.565-31.334-14.541-49.562 2.253-37.888 30.925-64.922 74.342-70.246v-55.091h-73.523c-8.192 47.514-35.84 74.342-76.186 74.342s-67.584-26.624-76.186-74.547h-108.749c1.843 140.493 135.782 305.971 334.643 299.008z" />
<glyph unicode="&#xe90b;" glyph-name="skill-attention" d="M512 784.691c-228.966 0-423.117-141.107-491.52-336.691 68.403-195.584 262.554-336.691 491.52-336.691s423.117 141.107 491.52 336.691c-68.403 195.584-262.554 336.691-491.52 336.691zM512 241.152c-114.483 0-206.848 92.365-206.848 206.848s92.365 206.848 206.848 206.848c114.483 0 206.848-92.365 206.848-206.848s-92.365-206.848-206.848-206.848zM615.629 448c0-56.934-46.694-103.629-103.629-103.629s-103.629 46.694-103.629 103.629v4.506c7.782-2.867 16.794-4.506 26.010-4.506 42.803 0 77.619 34.816 77.619 77.619 0 9.421-1.434 18.227-4.506 26.010h4.506c56.934 0 103.629-46.694 103.629-103.629z" />
<glyph unicode="&#xe90c;" glyph-name="skill-collaboration" d="M999.834 180.122c-12.493 58.573-57.754 104.448-115.507 118.374-11.059 3.072-23.757 4.506-36.25 4.506-37.683 0-72.090-14.131-99.328-36.864l-169.779 121.242v214.835c61.85 20.48 106.291 78.234 106.291 146.227 0 11.059-1.434 22.323-3.686 32.563-12.493 58.573-57.754 104.448-115.507 118.579-11.059 2.867-23.757 4.506-36.25 4.506-85.197 0-155.443-69.632-155.443-155.443 0-37.069 13.312-71.885 35.635-98.509 18.432-22.323 43.213-38.502 70.861-47.923v-212.378l-203.162-125.133c-18.432 16.179-40.55 28.058-65.331 34.202-11.059 3.072-23.757 4.506-36.25 4.506-85.197 0-155.443-69.632-155.443-155.443 0-37.069 13.312-71.885 35.635-98.509 28.877-34.816 71.885-56.934 120.013-56.934 12.493 0 25.19 1.434 37.069 4.506v0.819c68.198 16.384 118.579 77.824 118.579 150.323 0 11.059-1.434 22.118-3.686 32.358l200.090 123.085 168.96-120.627c-2.662-11.264-4.301-22.938-4.301-35.021 0-37.069 13.312-71.885 35.635-98.509 28.877-34.816 71.885-56.934 120.013-56.934 12.493 0 25.19 1.434 37.069 4.506v0.819c68.198 16.384 118.579 77.824 118.579 150.323-0.819 10.445-2.253 21.504-4.506 31.949z" />
<glyph unicode="&#xe90d;" glyph-name="minimum-order" d="M20.48 902.246v-442.368h983.040v442.368h-983.040zM543.949 539.546v-41.37h-63.898v38.298c-22.528 2.867-44.646 9.421-61.44 19.661l11.878 51.2c17.203-10.854 40.755-21.709 66.765-21.709s43.827 12.698 43.827 32.358-14.336 29.491-39.731 36.454c-54.477 15.77-82.125 48.128-82.125 88.883s24.576 67.379 61.030 78.234v42.189h63.898v-39.322c16.179-2.867 30.925-6.349 41.37-11.878l-11.264-50.586c-15.155 6.963-35.43 12.698-53.658 12.698s-39.731-11.264-39.731-28.058 15.155-24.986 37.888-31.949c54.477-16.179 87.040-47.718 87.040-92.979s-23.142-71.68-61.44-82.534zM695.91 201.216l-208.486-208.282-208.486 208.282h110.182v160.358h196.608v-160.358h110.182z" />
<glyph unicode="&#xe90e;" glyph-name="skill-competitive" d="M794.010 449.229c116.531 6.144 209.51 101.786 209.51 219.955s-79.872 199.885-184.32 217.498v52.838h-614.4v-52.838c-104.448-17.613-184.32-107.93-184.32-217.498s92.979-213.811 209.51-219.955c40.96-94.618 128-164.25 232.858-181.248v-114.893h-196.608v-196.608h491.52v196.608h-196.608v114.893c104.858 16.998 192.102 86.63 232.858 181.248zM905.216 669.184c0-54.886-36.25-100.762-86.016-116.531v233.062c49.766-15.77 86.016-61.85 86.016-116.531zM118.784 669.184c0 54.886 36.25 100.762 86.016 116.531v-233.267c-49.766 15.77-86.016 61.85-86.016 116.531z" />
<glyph unicode="&#xe90f;" glyph-name="skill-coordination" d="M664.576 859.034c1.434-7.987 2.048-15.974 2.048-24.576 0-27.443-6.963-53.453-20.070-75.981 133.939-53.453 229.376-184.934 229.376-337.92 0-18.022-1.434-35.43-4.506-52.429 37.069-8.397 69.018-30.515 90.522-60.416 9.011 36.045 13.926 73.933 13.926 112.845 0.205 202.547-130.253 374.989-311.296 438.477zM130.458 370.381c6.963 1.434 13.926 2.048 21.504 2.048-3.072 15.565-4.096 31.949-4.096 48.538 0 152.986 95.027 284.467 229.376 337.92-12.493 21.504-19.456 46.49-19.456 72.499-0.41 1.024-0.41 2.458-0.41 3.482 0 8.397 0.41 16.384 2.048 24.576-180.838-63.488-311.296-235.93-311.296-438.272 0-29.082 2.458-56.934 7.987-84.378 20.89 16.998 46.285 29.082 74.342 33.587zM716.595 119.501c-58.573-39.526-129.024-62.874-204.39-62.874-85.402 0-163.84 29.491-225.894 79.462-18.432-29.491-46.49-52.429-79.872-64.512 81.92-71.475 188.826-114.893 305.766-114.893 113.459 0 217.293 40.96 297.779 108.544-37.274 6.144-69.837 26.214-93.389 54.272zM861.184 319.386c-7.578 2.048-15.974 3.072-24.576 3.072-57.549 0-104.858-46.899-104.858-104.858 0-24.986 9.011-48.538 23.962-66.355 19.456-23.552 48.538-38.502 80.896-38.502 8.397 0 16.998 1.024 24.986 3.072v0.41c46.080 11.059 79.872 52.429 79.872 101.376 0 7.578-1.024 14.95-2.458 21.914-8.397 39.322-38.912 70.246-77.824 79.872zM248.422 170.291c7.578 14.541 11.469 29.901 11.469 46.899 0 55.501-43.418 100.966-97.894 104.448-2.048 0.41-4.506 0.41-6.963 0.41-6.554 0-12.902-0.41-19.046-1.434-18.432-3.482-35.43-12.083-49.562-23.962-5.939-5.53-11.469-11.469-15.974-18.022-12.902-16.998-20.48-38.502-20.48-61.44 0-57.549 46.899-104.858 104.858-104.858 3.482 0 6.554 0 9.421 0.41 22.938 2.048 44.032 12.083 60.416 26.419 9.626 8.806 17.613 19.251 23.757 31.13zM512.205 729.6c35.021 0 65.946 17.408 84.992 44.442 12.493 16.998 19.456 38.093 19.456 60.416 0 13.926-3.072 27.443-7.987 39.936-15.36 38.093-52.838 65.126-96.461 65.126-44.032 0-81.92-27.034-97.485-65.536-4.915-12.493-7.578-25.395-7.578-39.526 0-22.528 6.963-43.418 19.046-60.416 19.661-26.829 50.586-44.442 86.016-44.442z" />
<glyph unicode="&#xe910;" glyph-name="skill-knowledge" d="M512 939.52c-221.594 0-408.986-146.842-470.221-348.365-13.107-35.021-21.299-73.318-21.299-115.507 0-4.71 0.614-9.011 0.819-13.517-0.205-4.71-0.819-9.421-0.819-14.131 0-271.565 219.955-491.52 491.52-491.52s491.52 219.955 491.52 491.52-219.955 491.52-491.52 491.52zM512 20.378c-109.978 0-210.125 42.189-285.901 110.592 11.878 30.31 29.901 58.163 50.176 84.173 0.205 0.205 0.41 0.614 0.614 0.819 20.685 37.478-3.891 90.726-12.288 106.906-0.819 14.541-3.277 29.082-7.782 43.008-10.65 16.589-26.010 29.491-44.032 37.069-13.926 22.118-23.347 46.899-27.648 72.704-0.819 16.998 12.083 31.539 29.286 32.358 0.41 0 1.024 0 1.434 0 25.395 4.915 47.718 19.661 62.464 40.755 22.323 5.325 42.189 17.818 56.73 35.635 11.674 20.48 0.819 63.283-7.987 90.112 3.686 18.227 3.072 37.069-2.253 55.091-7.168 17.203-18.842 32.358-33.587 43.622-4.506 10.445-9.83 20.48-15.77 30.31 58.368 38.912 126.771 63.693 200.499 70.042-0.614-6.144-0.205-12.288 1.229-18.432 8.806-15.36 23.347-26.829 40.55-31.744-4.096-20.89 2.458-42.394 17.408-57.549 16.998-10.854 46.899 3.277 57.139-4.915h0.41c8.397-10.854 2.253-35.43 1.638-53.043-0.205-4.915 1.638-9.83 4.915-13.517 4.096-4.506 40.755-44.032 81.101-49.562 2.253-0.205 4.301-0.41 6.554-0.41 36.659 0 78.029 39.731 92.979 55.706 21.299 5.12 42.189 11.264 63.078 18.227 60.416-73.728 96.666-167.936 96.666-270.336 0-235.725-191.898-427.622-427.622-427.622zM827.187 425.677c-12.288 29.082-67.789 53.453-95.232 63.693l-27.648 25.19c-1.434 1.229-2.867 2.253-4.506 3.072-27.443 10.65-56.525 17.203-85.811 19.251-14.95 9.421-31.13 16.998-47.923 22.733-27.443 1.024-54.886-3.686-80.486-13.722-3.891-1.229-7.168-3.482-9.83-6.758-20.685-24.986-69.018-87.040-69.018-120.422 0-18.842 16.589-34.202 35.635-52.224 7.987-6.963 15.36-14.541 21.914-22.938 0.614-5.939 2.048-12.902 3.891-21.504 3.482-16.179 10.445-50.176 3.277-61.030-23.347-41.984-28.262-91.75-13.926-137.626 5.53-18.432 19.866-32.973 38.298-38.912 4.71-1.229 9.626-1.843 14.336-1.843 32.563 0 70.246 26.010 104.038 49.152 11.674 8.806 24.166 16.589 37.274 23.347 31.13 12.083 45.466 50.79 55.706 78.848 2.048 5.734 4.301 11.469 6.758 16.794 15.155 19.251 35.021 34.816 57.344 44.851 35.021 16.998 71.68 92.57 55.91 130.048z" />
<glyph unicode="&#xe911;" glyph-name="skill-dexterity" d="M696.73 101.478c-54.886-29.901-117.965-46.694-184.73-46.694-216.678 0-393.216 176.538-393.216 393.216s176.538 393.216 393.216 393.216c216.678 0 393.216-176.538 393.216-393.216 0-66.765-16.794-129.843-46.694-184.73 1.434-1.024 2.458-2.048 3.482-2.867l1.024-1.024 73.318-57.958c42.598 72.499 67.174 156.672 67.174 246.579 0 271.36-219.75 491.52-491.52 491.52-271.36 0-491.52-220.16-491.52-491.52 0-271.77 220.16-491.52 491.52-491.52 89.907 0 174.080 24.576 246.17 66.765l-58.573 74.752c-0.819 1.024-1.843 2.458-2.867 3.482zM708.608 372.838l64.307-61.85c21.709 40.755 33.997 87.45 33.997 137.011 0 162.611-131.686 294.912-294.912 294.912-162.611 0-294.912-132.301-294.912-294.912 0-163.226 132.301-294.912 294.912-294.912 49.562 0 96.256 12.288 137.216 33.997l-61.44 63.898-11.264 11.264c-20.070-6.963-41.779-10.854-64.307-10.854-108.134 0-196.608 88.064-196.608 196.608 0 108.134 88.474 196.608 196.608 196.608 108.544 0 196.608-88.474 196.608-196.608 0-22.528-3.891-44.237-10.854-64.307 3.277-4.096 7.168-7.373 10.65-10.854zM832.512 220.467c-1.434 1.024-2.458 2.048-3.891 2.867-2.458 3.482-7.373 4.506-13.312 4.506-2.458 0-4.915 0-7.373-0.41h-2.048c-26.624 0-42.189 23.552-60.006 41.37l-71.27 68.608c-24.576 23.552-48.128 47.718-71.68 72.294 4.915 11.878 7.373 24.576 7.373 38.298 0 54.067-43.827 98.304-98.304 98.304-54.067 0-98.304-44.237-98.304-98.304 0-54.477 44.237-98.304 98.304-98.304 13.722 0 26.624 2.458 38.298 7.373 24.576-23.552 48.742-47.104 72.294-71.68l68.813-71.27c18.227-18.227 42.189-33.997 41.37-61.85-0.41-5.325-0.41-11.264 0.41-15.155 0.41-2.458 1.434-3.891 2.867-5.325l111.002-135.168 116.531 116.531-131.072 107.315z" />
<glyph unicode="&#xe912;" glyph-name="skill-diction" d="M1003.52 450.048c0 221.594-220.16 400.998-491.52 400.998s-491.52-179.405-491.52-400.998 220.16-400.998 491.52-400.998c108.544 0 208.896 28.467 289.997 77.619l159.334-81.51-53.658 166.707c60.006 66.56 95.846 148.685 95.846 238.182zM277.504 366.899c-40.755 0-73.728 32.973-73.728 73.728 0 40.346 32.973 73.728 73.728 73.728s73.728-33.382 73.728-73.728c0-40.755-32.973-73.728-73.728-73.728zM512 366.899c-40.755 0-73.728 32.973-73.728 73.728 0 40.346 32.973 73.728 73.728 73.728s73.728-33.382 73.728-73.728c0-40.755-32.973-73.728-73.728-73.728zM747.52 366.899c-40.755 0-73.728 32.973-73.728 73.728 0 40.346 32.973 73.728 73.728 73.728s73.728-33.382 73.728-73.728c0-40.755-32.973-73.728-73.728-73.728z" />
<glyph unicode="&#xe913;" glyph-name="difficulty-medium" d="M167.936 349.696c81.438 0 147.456-66.018 147.456-147.456v-98.304c0-81.438-66.018-147.456-147.456-147.456s-147.456 66.018-147.456 147.456v98.304c0 81.438 66.018 147.456 147.456 147.456zM512 595.456c81.438 0 147.456-66.018 147.456-147.456v-344.064c0-81.438-66.018-147.456-147.456-147.456s-147.456 66.018-147.456 147.456v344.064c0 81.438 66.018 147.456 147.456 147.456zM856.064 841.216c27.034 0 49.152-22.118 49.152-49.152v-688.128c0-27.034-22.118-49.152-49.152-49.152s-49.152 22.118-49.152 49.152v688.128c0 27.034 22.118 49.152 49.152 49.152zM856.064 939.52c-81.51 0-147.456-65.946-147.456-147.456v-688.128c0-81.51 65.946-147.456 147.456-147.456s147.456 65.946 147.456 147.456v688.128c0 81.51-65.946 147.456-147.456 147.456v0z" />
<glyph unicode="&#xe914;" glyph-name="difficulty-hard" d="M167.936 349.696c81.438 0 147.456-66.018 147.456-147.456v-98.304c0-81.438-66.018-147.456-147.456-147.456s-147.456 66.018-147.456 147.456v98.304c0 81.438 66.018 147.456 147.456 147.456zM512 595.456c81.438 0 147.456-66.018 147.456-147.456v-344.064c0-81.438-66.018-147.456-147.456-147.456s-147.456 66.018-147.456 147.456v344.064c0 81.438 66.018 147.456 147.456 147.456zM856.064 939.52c81.438 0 147.456-66.018 147.456-147.456v-688.128c0-81.438-66.018-147.456-147.456-147.456s-147.456 66.018-147.456 147.456v688.128c0 81.438 66.018 147.456 147.456 147.456z" />
<glyph unicode="&#xe915;" glyph-name="box-size" d="M634.88 140.8h-491.52v73.728h-49.152v-196.608h49.152v73.728h491.52v-73.728h49.152v196.608h-49.152v-73.728zM929.792 804.352v49.152h-196.608v-49.152h73.728v-491.52h-73.728v-49.152h196.608v49.152h-73.728v491.52h73.728zM450.56 681.472h-122.88v196.608h-233.472v-589.824h589.824v589.824h-233.472v-196.608z" />
<glyph unicode="&#xe916;" glyph-name="family-icon" d="M782.336 477.901c92.979 12.083 158.72 97.485 146.637 190.669s-97.28 158.925-190.464 146.842c-92.979-12.083-158.72-97.485-146.637-190.669s97.28-158.925 190.464-146.842zM1003.52 79.155h-347.75l-3.891 29.901c-11.469 88.678-9.626 178.176 6.758 265.421l260.915 34.202c38.093-80.486 63.078-166.707 74.138-255.181l9.626-74.138zM218.317 460.698c82.125-8.806 155.853 50.586 164.659 132.71s-50.381 155.853-132.506 164.864c-82.125 8.806-155.853-50.586-164.659-132.71s50.381-155.853 132.506-164.864zM332.186 139.776l-6.349-60.621h-305.357l10.035 93.389c8.192 78.029 28.877 154.214 60.621 225.485l230.195-24.986c15.36-76.595 19.251-155.034 10.65-233.062zM496.026 323.277c65.536 0 118.579 53.248 118.579 118.784s-53.043 118.784-118.579 118.784-118.579-53.248-118.579-118.784 53.043-118.784 118.579-118.784zM613.376 79.565v-0.41h-240.845v0.41c0 62.054 9.626 124.314 28.467 183.091h183.91c18.842-58.778 28.467-120.832 28.467-183.091z" />
<glyph unicode="&#xe917;" glyph-name="skill-physical" d="M431.514 677.581c47.718 0 86.63 38.707 86.63 86.63s-38.912 86.426-86.63 86.426c-47.718 0-86.63-38.707-86.63-86.63s38.707-86.426 86.63-86.426zM974.643 65.638l28.877 80.691-404.275 144.384-57.344 250.675 363.315 104.243-23.552 82.33c-272.794-81.51-551.322-141.926-833.331-180.634l-27.853-3.686 13.926-84.582 357.581 58.982 23.552-255.181-383.181-137.011 28.877-80.691 459.981 145.203 453.427-124.723z" />
<glyph unicode="&#xe918;" glyph-name="skill-analytical" d="M735.437 532.992c-23.552-1.434-46.694-23.142-44.646-52.019 1.024-24.576 23.552-45.67 48.128-45.261 25.6-0.41 51.2 21.709 48.742 52.634-1.638 23.142-21.709 46.080-52.224 44.646zM930.611 591.565c-0.41 52.634-31.949 122.88-31.949 122.88-32.973 87.45-95.846 142.541-159.334 176.947-53.658 29.082-112.026 45.67-171.008 47.514-8.806 0.41-17.613 0-26.624 0v0c-62.874-1.434-125.747-19.661-181.453-53.043-201.933-121.242-165.478-360.243-165.478-360.243l-104.653-182.886 117.965-34.406v-198.656h159.744v-153.19h366.592l4.915 231.424c12.698 10.24 24.576 20.685 35.43 30.925 96.256 72.704 159.334 189.645 159.334 320.922-0.205 17.818-1.638 35.021-3.482 51.814zM604.16 560.026c-11.878-11.878-23.552-23.552-35.43-35.43-1.024-1.024-2.048-1.434-2.867-2.458-2.048 1.024-2.867 1.434-3.891 2.048-10.24 7.373-21.094 13.722-30.925 21.094-2.867 2.048-5.325 2.458-8.806 1.024-4.915-2.458-10.24-4.915-15.155-6.349-3.482-1.434-4.915-3.482-5.325-6.349-2.458-12.698-4.915-24.986-7.373-37.888-0.41-3.482-2.048-4.506-5.325-4.506h-49.152c-3.482 0-4.915 1.434-5.325 4.915-2.458 12.288-4.915 24.986-7.373 37.274-1.024 3.482-2.048 5.325-5.939 6.349-5.325 2.048-10.24 3.891-15.77 6.963-2.458 1.024-4.506 1.024-6.963-1.024-10.24-6.963-21.094-13.722-31.949-21.094-2.867-2.048-4.506-2.048-6.963 0.41-11.878 11.878-23.142 23.552-34.816 34.816-2.458 2.458-2.458 3.891-0.41 6.349 6.963 10.854 13.722 21.709 21.094 32.358 2.048 2.867 2.048 4.915 0.41 7.373-2.458 4.915-4.915 10.24-6.349 15.77-1.024 3.482-2.867 4.915-6.349 5.325-12.698 2.458-24.986 4.915-37.274 7.373-3.891 0.41-4.915 2.048-4.915 5.939 0.41 16.179 0.41 31.949 0 48.128 0 3.891 1.434 4.915 4.915 5.325 12.288 2.458 24.986 5.325 37.274 7.373 3.482 1.024 5.325 2.048 6.349 5.325 2.048 5.939 4.506 11.264 6.963 16.794 1.434 2.458 1.024 4.506-0.41 6.963-7.373 10.854-14.336 21.709-21.709 32.358-2.048 2.458-2.048 3.891 0.41 6.349 11.878 11.264 23.552 23.142 34.816 34.816 2.458 2.458 3.891 2.048 6.349 0.41 10.854-7.373 21.709-14.336 32.358-21.709 2.458-1.434 3.891-2.048 6.963-0.41 5.325 2.458 10.854 4.915 16.794 6.963 2.867 1.024 4.506 2.867 5.325 6.349 2.048 12.288 4.915 24.986 6.963 37.274 1.024 3.482 2.048 4.915 5.939 4.915 16.179-0.41 32.358 0 48.742 0 3.482 0 4.915-1.434 5.325-4.915l7.373-36.864c0.41-3.482 2.048-5.325 5.325-6.963 5.325-1.434 10.24-3.482 15.155-5.939 2.867-1.434 5.325-1.434 8.397 0.41 10.854 7.373 21.709 14.336 31.949 21.094 2.458 2.048 3.891 1.434 5.939-0.41l35.226-34.406c2.458-2.458 2.867-3.891 1.024-6.349-7.373-10.854-14.336-21.709-21.709-31.949-1.434-2.867-2.048-4.915-0.41-7.782 2.458-4.915 4.506-10.24 6.349-15.155 1.024-3.482 2.867-4.915 6.349-5.939 12.698-2.458 24.986-4.915 37.888-7.373 2.867-0.41 4.506-1.434 4.506-4.915v-49.562c0-3.482-1.434-4.915-4.506-5.325-12.698-2.458-24.986-4.915-37.888-7.373-3.482-0.41-5.325-2.458-6.349-5.325-2.048-5.325-3.891-10.854-6.349-15.77-1.434-2.867-1.024-4.915 0.41-7.782 7.373-10.24 14.336-21.094 21.709-31.539 1.843-3.482 1.843-5.325-0.614-7.373zM859.341 467.251c0-2.458-1.024-3.482-3.482-3.482-8.397-2.048-17.203-3.482-26.010-5.325-2.048-0.41-3.482-1.434-4.506-3.891-1.024-3.482-2.458-6.963-4.506-10.24-1.024-2.048-0.41-3.482 0.41-5.325 4.915-7.373 9.83-14.746 14.746-22.118 1.434-2.048 1.434-2.867-0.41-4.915-7.782-7.782-15.77-15.77-24.166-24.166-0.41-0.41-1.434-1.024-2.458-2.048-1.024 1.024-1.434 1.434-2.458 2.048-7.373 4.506-14.336 9.421-21.709 14.336-2.048 1.434-3.482 1.434-5.939 0.41-3.482-1.434-6.963-2.867-10.24-4.506-2.458-0.41-3.482-2.048-3.891-4.506-1.434-8.397-3.482-17.203-4.915-26.010-0.41-2.048-1.434-2.867-3.891-2.867h-33.382c-2.867 0-3.891 1.024-4.506 3.482-1.434 8.397-3.482 17.203-4.915 25.6-0.41 2.458-1.434 3.891-3.891 4.915-3.482 1.024-7.373 2.458-10.854 4.506-2.048 1.024-2.867 0.41-4.915-0.41-7.373-4.915-14.746-9.83-21.709-14.746-2.458-1.434-3.482-1.434-5.325 0.41-7.782 7.782-15.77 16.179-23.552 24.166-2.048 1.434-2.048 2.458-0.41 4.506 4.915 7.373 9.83 14.746 14.746 22.118 1.024 2.048 1.024 3.482 0 5.325-1.434 3.482-2.867 6.963-4.506 10.24-0.41 2.458-2.048 3.482-4.506 3.891-8.397 2.048-17.203 3.482-25.6 5.325-2.458 0.41-3.482 1.434-3.482 3.891v33.382c0 2.458 1.024 3.482 3.482 3.891 8.397 1.434 17.203 3.482 25.6 4.915 2.458 0.41 3.891 1.434 4.506 3.482 1.434 3.891 2.867 7.782 4.915 11.878 1.024 1.434 1.024 2.867-0.41 4.506-4.915 7.373-9.83 15.155-14.746 22.528-1.434 1.434-1.434 2.458 0 4.506 8.397 7.782 16.179 15.77 24.576 24.166 1.434 1.434 2.458 1.434 4.506 0.41 7.373-5.325 14.746-10.24 22.118-15.155 1.434-1.024 2.867-1.024 4.915-0.41 3.482 2.048 7.373 3.482 11.264 4.915 2.458 1.024 3.482 2.048 3.891 4.506 1.434 8.806 3.482 17.203 4.915 26.010 0.41 2.458 1.024 3.482 3.891 2.867 10.854 0 22.118 0 33.382 0.41 2.458 0 3.482-1.024 3.891-3.482 1.434-8.397 3.482-17.203 4.915-25.6 0.41-2.458 1.434-3.891 3.891-4.915 3.482-1.024 6.963-2.458 10.24-3.891 2.048-1.024 3.891-1.024 5.939 0.41 7.373 4.915 14.746 9.421 22.118 14.336 2.048 1.434 2.867 1.024 3.891-0.41 8.397-7.782 16.794-16.179 24.576-24.166 1.434-1.434 2.048-2.867 0.41-4.506-4.915-7.373-9.83-14.746-14.746-22.118-1.434-2.048-1.434-3.482-0.41-5.325 2.048-3.482 3.482-6.963 4.506-10.854 1.024-2.048 2.458-3.482 4.506-3.891 8.806-1.434 17.613-2.867 26.010-4.915 2.458-0.41 3.482-1.024 3.482-3.482-0.41-12.083-0.41-23.347 0.205-34.611zM533.914 670.618c3.482-44.646-33.382-77.21-69.837-76.186-36.454-1.024-68.403 29.901-70.246 65.331-2.458 42.189 30.515 73.318 65.331 75.162 43.213 2.662 72.294-31.334 74.752-64.307z" />
<glyph unicode="&#xe919;" glyph-name="weight-icon" d="M806.912 619.008h-174.899c31.949 31.334 52.019 74.752 52.019 122.88 0 94.822-77.21 172.032-172.032 172.032s-172.032-77.21-172.032-172.032c0-48.128 20.070-91.546 52.019-122.88h-174.899l-196.608-638.976h983.040l-196.608 638.976zM512 815.616c40.755 0 73.728-32.973 73.728-73.728s-32.973-73.728-73.728-73.728-73.728 32.973-73.728 73.728 32.973 73.728 73.728 73.728z" />
<glyph unicode="&#xe91a;" glyph-name="skill-creativity" d="M710.373 591.823l155.677 155.677 69.511-69.511-155.677-155.677-69.511 69.511zM97.536 677.767l69.511 69.511 155.677-155.677-69.511-69.511-155.677 155.677zM478.003 881.152h98.304v-220.16h-98.304v220.16zM97.32 88.974l155.677 155.677 69.511-69.511-155.677-155.677-69.511 69.511zM710.362 175.070l69.511 69.511 155.677-155.677-69.511-69.511-155.677 155.677zM20.48 423.424h220.16v-98.304h-220.16v98.304zM783.36 423.424h220.16v-98.304h-220.16v98.304zM563.2 544.051c-12.698 4.096-26.214 5.734-39.322 8.397h-21.094c-1.843-0.41-3.686-0.819-5.734-0.819-18.637-2.048-36.454-6.758-53.248-15.36-41.574-21.094-69.222-54.477-86.016-97.894-19.661-50.995-15.565-99.533 12.493-146.022 10.24-16.794 21.504-32.768 33.178-48.538 9.626-13.107 16.589-26.010 20.89-41.37h10.65l14.336-82.944h25.19c2.048-20.070 18.432-35.635 38.912-35.635s36.864 15.77 38.912 35.635h25.19l14.336 82.944h10.445c4.506 17.613 14.746 32.358 25.19 46.899 15.36 21.094 30.72 42.189 40.96 66.56 10.65 25.19 14.95 51.405 11.674 78.643-2.867 24.371-10.854 47.104-22.118 68.608-20.89 39.117-52.019 67.174-94.413 81.101z" />
<glyph unicode="&#xe91b;" glyph-name="skill-imagination" d="M924.672 816.64c0-67.865-55.015-122.88-122.88-122.88s-122.88 55.015-122.88 122.88c0 67.865 55.015 122.88 122.88 122.88s122.88-55.015 122.88-122.88zM258.867 720.179l74.547 21.504 60.006-49.152 2.662 77.619 65.331 41.984-73.114 26.419-19.661 75.162-47.718-61.44-77.414 4.506 43.622-64.307zM929.997 591.565c-0.41 15.155-2.867 31.949-6.963 47.718h-334.234l83.354 83.354-111.206 111.206-111.206-111.206 83.354-83.354h-335.462c-10.854-64.922-3.482-113.459-3.482-113.459l-104.038-183.091 117.965-30.31v-202.752h159.334v-153.19h367.206l4.915 231.424c12.698 10.24 24.166 20.685 35.43 30.925 96.256 72.704 158.72 189.645 158.72 320.922-0.205 17.818-1.229 35.021-3.686 51.814z" />
<glyph unicode="&#xe91c;" glyph-name="skill-intelligence" d="M444.621 729.805c20.685-13.926 36.864-28.672 48.742-42.394v208.486c0 17.408-10.65 33.178-26.829 39.117 0 0-0.205 0-0.205 0.205-19.661 7.373-43.213 5.12-71.475-6.758-13.107-5.53-26.624-11.469-40.141-17.613 41.984-17.203 59.802-60.211 60.416-62.054-1.229 0.614-31.949-13.722-33.792-13.517-17.408 41.574-61.645 59.392-105.677 35.226-46.49-25.6-65.946-58.163-60.621-101.99 34.816 3.072 66.765-8.397 91.546-33.587 33.587-33.587 48.128-87.654 36.454-134.144-0.819 0.614-35.635 8.806-35.226 8.806 8.806 34.816-2.253 74.752-27.034 99.738-14.131 14.336-38.707 29.696-75.981 20.48h-0.205c-132.506-18.432-208.077-283.034-81.51-364.134 32.973-21.094 82.534 17.613 82.944 17.818 0.819-1.434 19.251-30.106 20.070-30.31-1.843-1.229-40.55-26.829-84.378-26.829-9.626 0-19.661 1.229-29.696 4.301-11.059 3.686-21.299 9.011-30.31 16.589-13.926-50.381-3.277-91.75 33.587-129.434 14.541-14.746 24.986-38.298 26.829-59.802 4.096-49.971 26.010-83.354 68.813-104.858 2.458-1.229 5.53-2.458 8.397-3.686 10.24-4.301 23.142-9.83 30.31-21.299 41.165-69.222 205.824-134.963 239.616 32.973 0.819 5.53 1.229 10.65 1.229 15.565 0 18.022-5.12 32.768-15.155 44.237-15.36 17.818-44.237 28.467-77.005 28.672-1.229 0.819 0.819 35.635-0.41 36.454 38.298 0 72.090-11.264 95.232-31.539v468.992c-0.41 0.819-0.819 1.434-1.229 2.458s-18.842 41.165-67.584 73.523c-0.205-1.638 20.275 29.082 20.275 30.31zM361.882 295.834c2.662-1.229-70.451-1.638-97.485-76.8 20.48-5.325 45.466-16.589 58.982-41.984 21.504-40.141 20.48-97.485 20.48-99.942 0.614 0.205-36.25 0.205-36.454 0.819 0 0.614 0.819 50.381-15.974 82.125-10.65 19.661-37.683 24.781-48.742 26.214 0 0-0.205 0-0.205 0-10.65 1.229-18.637 10.65-18.022 21.299 0.205 3.891 0.614 7.373 0.819 8.602 25.19 91.955 100.557 116.122 136.806 116.122-1.434-1.024 0.614-33.792-0.205-36.454zM425.984 517.018c-2.662-1.638-29.696-18.227-64.922-31.539l-43.418-75.776c0 1.229-32.768 17.613-31.539 18.022l24.986 43.418c-10.65-2.048-21.299-3.072-31.744-3.072-29.901 0-58.163 9.011-77.824 35.226-0.819-0.205 29.901 22.323 29.082 21.914 23.552-31.334 72.704-22.118 113.050-7.373 34.406 12.493 62.464 29.696 63.078 30.106 1.024-1.638 19.456-32.358 19.251-30.925zM599.45 700.109c-48.538-32.358-67.174-72.499-67.584-73.523-0.41-0.819-0.819-1.638-1.229-2.458v-468.378c23.142 20.275 56.934 31.539 95.232 31.539-1.229-0.819 0.819-35.635-0.41-36.454-32.768 0-61.44-10.854-77.005-28.672-10.035-11.469-15.155-26.214-15.155-44.237 0-4.915 0.614-10.24 1.229-15.565 33.792-167.936 198.451-102.195 239.616-32.973 7.373 11.469 20.275 16.998 30.31 21.299 2.867 1.024 5.734 2.458 8.397 3.686 42.803 21.504 64.717 54.886 68.813 104.858 1.843 21.504 12.288 45.056 26.829 59.802 36.864 37.683 47.514 79.053 33.587 129.434-9.011-7.373-19.046-12.902-30.31-16.589-10.035-3.072-20.070-4.301-29.696-4.301-43.622 0-82.534 25.395-84.378 26.829 0.819 0.205 19.251 28.877 20.070 30.31 0.614-0.205 49.971-38.912 82.944-17.818 126.566 80.896 50.995 345.702-81.51 364.134v0c-37.069 9.011-61.645-6.144-75.981-20.48-24.781-24.986-35.635-64.922-27.034-99.738 0.41 0-34.406-8.192-35.226-8.806-11.674 46.694 2.867 100.557 36.454 134.144 24.781 24.781 56.73 36.25 91.546 32.973 5.325 43.622-14.131 76.186-60.621 101.99-43.827 23.962-88.064 6.349-105.677-35.226-1.843-0.205-32.563 14.131-33.792 13.517 0.819 1.843 18.432 44.851 60.416 62.054-13.517 6.144-27.034 12.288-40.141 17.613-28.467 11.878-51.814 14.131-71.475 6.758 0 0-0.205 0-0.205-0.205-16.179-5.939-26.829-21.914-26.829-39.117v-208.691c12.083 13.722 28.058 28.672 48.742 42.394 0-1.024 20.48-31.744 20.070-30.106zM662.118 332.902c36.25 0 111.616-24.166 136.806-116.122 0.41-1.434 0.614-4.71 0.819-8.602 0.614-10.854-7.168-20.070-18.022-21.299 0 0-0.205 0-0.205 0-11.059-1.434-38.298-6.554-48.742-26.214-16.998-31.744-15.974-81.51-15.974-82.125-0.205-0.41-37.069-0.41-36.454-0.819 0 2.458-1.024 59.802 20.48 99.942 13.517 25.395 38.502 36.864 58.982 41.984-27.034 75.162-100.147 75.571-97.485 76.8-1.024 2.662 1.024 35.43-0.205 36.454zM617.267 548.557c0.614-0.41 28.672-17.408 63.078-30.106 40.346-14.95 89.498-23.962 113.050 7.373-0.819 0.614 29.901-21.914 29.082-21.914-19.661-26.214-47.923-35.226-77.824-35.226-10.445 0-21.094 1.024-31.744 3.072l24.986-43.418c1.229-0.41-31.539-16.794-31.539-18.022l-43.418 75.776c-35.226 13.312-62.259 29.901-64.922 31.539-0.205-1.434 18.227 29.286 19.251 30.925z" />
<glyph unicode="&#xe91d;" glyph-name="skill-intuition" d="M930.202 591.565c-0.41 52.634-31.539 122.88-31.539 122.88-33.382 87.45-96.256 142.541-159.744 176.947-53.043 29.082-112.026 45.261-171.008 47.104-8.397 0.41-17.203 1.024-26.010 1.024v-1.024c-63.488-1.434-125.747-19.251-181.862-52.634-201.523-121.242-165.478-360.243-165.478-360.243l-104.243-182.886 117.965-34.406v-198.656h159.334v-153.19h367.206l4.915 231.424c12.698 10.24 24.166 20.685 35.43 30.925 96.256 72.704 158.72 189.645 158.72 320.922-0.205 17.818-1.229 35.021-3.686 51.814zM650.65 505.958c-40.346-39.731-64.922-95.232-64.922-156.262 0 122.47-98.714 221.184-221.184 221.184 61.030 0 116.531 24.576 156.262 64.922 40.346 39.731 64.922 95.232 64.922 156.262 0-61.030 24.576-116.531 64.922-156.262 39.731-40.346 95.232-64.922 156.262-64.922-61.030 0-116.531-24.576-156.262-64.922z" />
<glyph unicode="&#xe91e;" glyph-name="kids-icon" d="M1003.52 419.328c0 41.165-29.082 75.366-67.584 83.558 0 0 0 0 0 0-27.443 209.92-206.438 371.507-424.141 371.507-14.336 0-28.058-0.41-41.779-2.048-38.298-19.251-64.922-58.982-64.922-104.653 0-64.922 52.634-117.965 117.555-117.965 20.070 0 36.454 16.179 36.454 36.454 0 19.661-16.179 35.84-36.454 35.84v63.898c55.091 0 100.352-44.646 100.352-99.738s-45.261-100.352-100.352-100.352c-99.738 0-181.453 81.51-181.453 181.862 0 28.058 6.349 55.091 18.227 78.643-143.974-54.886-250.675-185.754-271.36-343.45 0 0 0 0 0 0-38.502-8.192-67.584-42.394-67.584-83.558 0-44.851 34.816-81.306 78.848-84.787 0 0 0-0.205 0-0.205 49.562-181.453 215.245-314.573 412.467-314.573 197.018 0 363.315 133.12 412.877 314.573 0 0 0 0.205 0 0.205 44.032 3.482 78.848 39.936 78.848 84.787zM373.146 425.677c0 29.491-24.166 53.658-53.658 53.658s-53.658-24.166-53.658-53.658h-63.693c0 64.922 52.634 117.555 117.555 117.555s117.555-52.634 117.555-117.555h-64.102zM757.965 425.677c0 29.491-24.166 53.658-53.658 53.658s-53.658-24.166-53.658-53.658h-63.898c0 64.922 52.634 117.555 117.555 117.555s117.555-52.634 117.555-117.555h-63.898z" />
<glyph unicode="&#xe91f;" glyph-name="language-icon" d="M912.179 732.467h-321.536v-477.389c0-66.765-48.128-122.88-111.411-134.963v-48.742c0-50.586 40.55-91.341 91.341-91.341h341.606c50.176 0 91.341 40.55 91.341 91.341v569.754c0 50.586-41.165 91.341-91.341 91.341zM948.224 419.533h-51.61c-9.011-24.576-20.48-49.152-34.611-72.704-10.035-16.998-20.48-33.587-32.563-49.152 22.118-24.576 46.080-45.67 70.656-61.235l-26.624-42.598c-26.624 16.998-52.634 39.117-76.186 64.717-23.552-25.6-49.152-47.718-75.776-64.717l-27.034 42.598c24.986 15.565 49.152 36.659 70.656 61.235-12.083 15.565-22.528 32.154-32.563 49.152-14.131 23.552-25.6 48.128-34.611 72.704h-51.61v50.176h125.952v52.634h50.176v-52.634h125.952v-50.176zM776.397 371.814c6.554-11.469 13.517-22.528 21.504-33.178 7.578 10.445 14.541 21.504 21.094 33.178 9.011 15.565 16.998 31.539 24.166 47.718h-90.726c6.554-15.974 14.541-32.154 24.166-47.718zM259.277 686.797l-35.635-141.926h117.76l-35.635 141.926h-46.49zM544.563 254.874v569.754c0 50.586-40.55 91.341-91.341 91.341h-341.402c-50.176 0-91.341-40.55-91.341-91.341v-569.754c0-50.586 41.165-91.341 91.341-91.341h341.402c9.011 0 18.022 1.434 26.010 4.096 38.093 11.059 65.126 45.67 65.126 87.245zM387.072 361.779l-33.178 132.915h-142.746l-33.178-132.915-48.742 12.083 90.931 363.11h124.928l88.269-353.075v-10.445l-46.080-11.469z" />
<glyph unicode="&#xe920;" glyph-name="skill-memory" d="M877.978 769.126l-27.238 27.853c-80.486 73.728-185.754 120.627-302.285 125.542-6.758 0-13.312 0.41-20.070 0.41v-32.973c-32.973 44.442-101.99 53.658-143.77 2.867l-0.41-0.41c16.794-4.71 32.973-12.493 47.514-24.371 32.154-26.829 46.49-68.403 42.189-123.085l-22.118 1.434-3.277 0.41-22.118 1.434c19.456 107.725-130.048 142.541-173.466 60.211-9.626-18.227-12.902-36.864-11.878-57.549 0.41-17.203-6.758-22.938-22.938-18.637-19.661 5.325-38.707 4.301-58.368-2.867-45.056-15.77-72.704-66.15-60.826-112.64v-0.41c73.318 18.227 131.686-10.035 135.168-11.878l-21.504-42.598c-1.638 0.819-25.6 12.083-59.802 12.902-73.728 1.638-134.554-58.163-131.891-131.891 0-0.41 0-0.819 0-1.229 0.41-14.746 3.277-28.262 7.578-40.755 4.71-11.059 9.626-21.094 13.926-28.672 9.011-14.336 21.504-26.829 36.454-38.298 0.41-0.41 0.41-0.41 1.024-1.024h0.41c32.358 40.96 73.114 72.090 80.282 77.414l28.672-38.298c-23.552-17.613-55.091-46.49-77.414-76.186-12.698-16.794-17.818-38.502-13.517-59.187 0.205-1.229 0.614-2.458 0.819-3.482 7.168-28.467 30.925-49.971 60.006-55.091 75.366-13.312 141.722 37.888 144.589 40.755l29.696-37.888c-2.458-1.843-39.322-30.72-91.955-45.466h-0.41c-1.024-3.891-1.024-8.192 0.41-14.746 0.41-2.458 1.024-4.301 1.434-6.758 12.493-54.067 67.584-86.63 120.218-71.885 16.384 4.301 29.286 13.312 42.189 22.938 7.168 5.734 16.794 4.301 21.504-1.024 5.325-6.144 3.891-16.384-3.277-22.528-11.469-9.626-23.552-18.637-37.274-23.552-9.626-3.277-7.578-6.758-3.277-12.493 40.141-51.2 111.206-46.899 145.613 1.434v-35.43c6.758 0 13.312 0.41 20.070 0.41 116.326 4.71 221.798 51.814 302.285 125.542l27.238 27.853c74.138 80.077 120.627 185.958 125.338 302.285v39.322c-4.71 116.326-51.2 222.208-125.542 302.285zM860.365 154.522v0l-83.763 83.763-28.262-28.672 83.763-84.378-4.301-4.301c-73.318-67.584-167.731-108.339-266.854-115.507v341.197l-15.77 8.602-16.794 9.626-90.112 49.766-179.2 99.533 11.469 20.685 11.878 21.094 274.637-152.371 3.891 1.434 234.701 88.678-15.36 40.755-219.341-76.595v430.899c99.123-7.168 193.536-47.923 266.854-115.507l2.867-2.867-82.33-82.33 28.262-28.672 82.33 82.33c67.584-75.162 106.701-172.442 111.616-273.408h-102.605v-40.141h102.605v-0.41c-4.301-101.171-43.213-198.042-110.182-273.203z" />
<glyph unicode="&#xe921;" glyph-name="players-number" d="M809.779 724.89c0-54.405-44.104-98.509-98.509-98.509s-98.509 44.104-98.509 98.509c0 54.405 44.104 98.509 98.509 98.509s98.509-44.104 98.509-98.509zM906.445 183.194h-147.456l-63.488-112.64h-112.23l56.73 112.64 59.392 117.76c7.168 14.131 21.504 22.938 37.478 22.938h73.523l-16.179 46.49-152.986 24.986v75.981h117.965l-44.032 126.976h139.469l65.331-129.434 4.301-8.397 61.030-121.242 7.782-15.36c32.563-64.512-14.336-140.698-86.63-140.698zM411.238 724.89c0-54.405-44.104-98.509-98.509-98.509s-98.509 44.104-98.509 98.509c0 54.405 44.104 98.509 98.509 98.509s98.509-44.104 98.509-98.509zM117.555 183.194h147.456l63.488-112.64h112.23l-56.73 112.64-59.392 117.76c-7.168 14.131-21.504 22.938-37.478 22.938h-73.523l16.179 46.49 152.986 24.986v75.981h-117.965l44.032 126.976h-139.469l-65.331-129.434-4.301-8.397-61.030-121.242-7.782-15.36c-32.563-64.512 14.336-140.698 86.63-140.698zM371.302 342.323h281.395v-50.176h-281.395v50.176zM519.627 394.226l29.832 29.832 29.832-29.832-29.832-29.832-29.832 29.832zM458.138 471.552h42.189v-42.189h-42.189v42.189z" />
<glyph unicode="&#xe922;" glyph-name="skill-sensory" d="M419.226 444.928c0-52.429 42.598-95.027 94.822-95.027 52.429 0 94.822 42.598 94.822 95.027s-42.394 94.822-94.822 94.822c-52.429 0-94.822-42.598-94.822-94.822zM676.454 275.354c90.726 90.726 90.726 238.182 0 328.909-43.622 43.622-102.195 67.789-164.454 67.789-4.915 0-9.626-0.41-14.336-0.614-10.035 11.059-24.371 18.022-40.346 18.022-26.624 0-48.538-18.842-53.658-43.827-20.48-10.65-39.322-24.576-56.115-41.165-90.726-90.726-90.726-238.182 0-328.909l29.491 29.491c-74.547 74.547-74.547 195.584 0 270.131 10.854 10.854 23.142 20.070 36.045 27.853 10.035-13.722 26.010-22.938 44.442-22.938 28.672 0 52.019 22.323 54.272 50.381 0.205 0 0.205 0 0.41 0 51.2 0 99.328-19.661 135.168-55.501 74.547-74.547 74.547-195.584 0-270.131l29.082-29.491zM690.381 103.526l48.742 48.742-137.626 132.71h-179.61c0-0.41-0.205-0.614-0.205-1.024l-136.806-131.891 48.742-48.742 81.51 46.49c0-3.891 0.205-7.578 0.205-11.469v-174.080h192.922v174.080c0 3.891 0.205 7.987 0.205 11.878l81.92-46.694zM790.118 689.459c-5.12 0-9.83-0.819-14.541-2.253-2.662 2.867-4.915 5.734-7.782 8.602-141.107 141.107-370.688 141.107-511.795 0-67.789-67.789-102.605-155.853-105.267-244.941-18.432-8.806-31.13-27.443-31.13-49.152 0-26.010 18.227-47.718 42.598-53.248 15.565-60.211 46.694-117.35 93.798-164.454l29.491 29.491c-40.755 40.755-67.994 90.112-82.125 142.131 15.36 9.626 25.805 26.829 25.805 46.285 0 23.962-15.36 44.032-36.659 51.405 3.277 77.619 33.997 154.214 92.979 213.197 124.928 124.928 328.090 124.928 453.018 0 1.434-1.434 2.662-3.072 4.301-4.71-4.506-7.987-7.373-17.203-7.373-27.034 0-30.31 24.576-54.682 54.682-54.682 3.072 0 6.144 0.41 9.011 0.819 21.094-43.213 32.563-91.136 32.563-141.107 0-86.016-33.178-166.502-93.184-226.509l29.491-29.491c113.254 113.254 135.373 283.648 66.765 419.43 6.349 9.011 10.035 19.661 10.035 31.539 0 30.31-24.371 54.682-54.682 54.682zM975.462 276.582c18.022 51.405 28.058 106.496 28.058 163.226 0 270.95-220.57 491.52-491.52 491.52-128.205 0-244.941-49.357-332.595-129.843-6.758 2.867-14.131 4.506-21.709 4.506-30.31 0-54.682-24.576-54.682-54.682 0-10.24 3.072-19.661 7.987-27.853-56.934-80.282-90.522-177.971-90.522-283.648 0-199.27 118.989-377.446 302.899-453.837l15.974 38.502c-168.346 69.837-277.299 233.062-277.299 415.334 0 96.256 30.515 185.344 82.125 258.458 4.301-1.024 8.806-1.843 13.517-1.843 30.31 0 54.682 24.576 54.682 54.682 0 7.168-1.434 14.131-4.096 20.275 80.077 73.318 186.778 118.17 303.514 118.17 248.013 0 449.946-201.933 449.946-449.946 0-52.224-9.216-102.81-26.010-150.118-28.467-2.048-50.79-25.395-50.79-54.272 0-11.674 3.686-22.528 10.035-31.334-48.333-78.438-120.422-142.131-209.715-179.405l15.974-38.298c97.28 40.55 175.923 109.773 228.762 195.174 3.277-0.614 6.349-1.024 9.83-1.024 30.31 0 54.682 24.576 54.682 54.682 0.205 16.998-7.373 31.539-19.046 41.574z" />
<glyph unicode="&#xe923;" glyph-name="skill-social" d="M512 939.52c-271.36 0-491.52-220.16-491.52-491.52s220.16-491.52 491.52-491.52 491.52 220.16 491.52 491.52-220.16 491.52-491.52 491.52zM155.648 521.728c0 74.752 60.416 135.168 135.168 135.168s135.168-60.416 135.168-135.168h-73.728c0 33.997-27.443 61.44-61.44 61.44s-61.44-27.443-61.44-61.44h-73.728zM512 116.224c-126.771 0-238.797 85.606-272.384 207.872l70.861 19.661c24.986-90.522 107.725-153.805 201.523-153.805s176.538 63.488 201.523 153.805l70.861-19.661c-33.382-122.47-145.408-207.872-272.384-207.872zM794.624 521.728c0 33.997-27.443 61.44-61.44 61.44s-61.44-27.443-61.44-61.44h-73.728c0 74.752 60.416 135.168 135.168 135.168s135.168-60.416 135.168-135.168h-73.728z" />
<glyph unicode="&#xe924;" glyph-name="skill-strategic" d="M967.68 665.498c11.469 62.054-29.491 121.856-91.546 133.325s-121.856-29.491-133.325-91.546c-11.469-62.054 29.491-121.856 91.546-133.325 6.758-1.229 13.312-1.638 20.070-1.638 15.565-47.309 48.538-190.669-93.184-266.035-108.134-57.139-154.010 6.554-226.304 124.109-66.56 108.134-149.504 242.688-323.379 156.467-119.603-59.187-169.984-209.51-156.672-320.717 10.65-89.907 60.006-153.19 131.482-169.165l16.179 71.885c-57.344 12.902-71.066 78.438-74.547 106.086-10.445 87.45 30.106 203.366 116.122 245.965 108.339 53.658 155.034-10.854 227.738-129.024 66.765-108.339 149.914-243.098 323.789-150.528 167.936 89.293 160.358 260.096 128.614 354.509 21.709 16.589 37.888 40.755 43.418 69.632zM633.446 410.522l45.466 31.13 31.13-45.466 60.621 41.779-31.13 45.261 45.466 31.13-41.779 60.826-45.261-31.13-31.13 45.466-60.826-41.779 31.13-45.466-45.466-31.13 41.779-60.621zM401.818 381.030l-45.261-31.13-31.13 45.261-60.826-41.574 31.13-45.466-45.466-31.13 41.779-60.826 45.466 31.13 31.13-45.261 60.621 41.574-31.13 45.466 45.466 31.13-41.779 60.826z" />
<glyph unicode="&#xe925;" glyph-name="delivery-time" d="M801.587 693.76h-191.283v98.304h-589.824v-589.824h98.304c0-54.067 44.237-98.304 98.304-98.304s98.304 44.237 98.304 98.304h393.216c0-54.067 44.237-98.304 98.304-98.304s98.304 44.237 98.304 98.304h98.304v296.346l-201.933 195.174zM327.68 300.544c-115.507 0-208.896 93.389-208.896 208.896s93.389 208.896 208.896 208.896 208.896-93.389 208.896-208.896-93.389-208.896-208.896-208.896zM899.277 484.864l-233.882 1.024v121.856h125.747l108.134-104.243v-18.637zM478.003 512.922l-169.574-77.21-84.378 198.656 67.789 28.877 55.091-129.229 100.762 45.67 30.31-66.765z" />
<glyph unicode="&#xe926;" glyph-name="time-icon" d="M512 939.52c-271.36 0-491.52-220.16-491.52-491.52s220.16-491.52 491.52-491.52 491.52 220.16 491.52 491.52-220.16 491.52-491.52 491.52zM486.4 331.059l-166.093 390.758 90.522 38.912 126.771-298.803 221.594 99.738 40.346-89.498-313.139-141.107z" />
<glyph unicode="&#xe927;" glyph-name="skill-vocabulary" d="M757.76 841.216h-638.976v-884.736h638.976c27.034 0 49.152 22.118 49.152 49.152v786.432c0 27.034-22.118 49.152-49.152 49.152zM551.731 524.186c31.539 0 53.658-13.722 64.922-33.382v30.515h77.21v-220.774h-77.21v30.515c-11.264-19.661-33.997-33.382-64.922-33.382-52.634 0-93.798 43.213-93.798 113.459s41.37 113.050 93.798 113.050zM254.771 578.253h88.883l101.171-277.709h-81.51l-15.155 45.261h-98.304l-14.746-45.261h-81.101l100.762 277.709zM299.213 494.694l-29.491-89.907h59.392l-29.901 89.907zM576.307 364.851c22.118 0 40.346 16.179 40.346 46.285s-18.227 45.67-40.346 45.67-39.731-15.77-39.731-45.67 18.227-46.285 39.731-46.285zM806.912 939.52h-638.976v-49.152h614.4c40.755 0 73.728-32.973 73.728-73.728v-811.008c27.238 0 49.152 21.914 49.152 49.152v786.432c0 54.272-44.032 98.304-98.304 98.304z" />
<glyph unicode="&#xe928;" glyph-name="difficulty-easy" d="M167.936 349.696c81.438 0 147.456-66.018 147.456-147.456v-98.304c0-81.438-66.018-147.456-147.456-147.456s-147.456 66.018-147.456 147.456v98.304c0 81.438 66.018 147.456 147.456 147.456zM512 497.152c27.034 0 49.152-22.118 49.152-49.152v-344.064c0-27.034-22.118-49.152-49.152-49.152s-49.152 22.118-49.152 49.152v344.064c0 27.034 22.118 49.152 49.152 49.152zM512 595.456c-81.51 0-147.456-65.946-147.456-147.456v-344.064c0-81.51 65.946-147.456 147.456-147.456s147.456 65.946 147.456 147.456v344.064c0 81.51-65.946 147.456-147.456 147.456v0zM856.064 841.216c27.034 0 49.152-22.118 49.152-49.152v-688.128c0-27.034-22.118-49.152-49.152-49.152s-49.152 22.118-49.152 49.152v688.128c0 27.034 22.118 49.152 49.152 49.152zM856.064 939.52c-81.51 0-147.456-65.946-147.456-147.456v-688.128c0-81.51 65.946-147.456 147.456-147.456s147.456 65.946 147.456 147.456v688.128c0 81.51-65.946 147.456-147.456 147.456v0z" />
<glyph unicode="&#xe929;" glyph-name="cards-simple" d="M964.198 649.114l-304.333 243.302c-19.251 15.77-42.189 23.142-65.331 23.142s-46.694-7.782-65.331-23.552c79.667-6.963 142.541-74.138 142.541-155.853v-619.93l308.634 385.843c36.454 45.261 29.082 110.592-16.179 147.046v0zM514.867 840.192h-390.144c-57.549 0-104.243-46.694-104.243-104.243v-651.264c0-57.549 46.694-104.243 104.243-104.243h390.144c27.034 0 51.2 10.24 69.837 27.034l20.070 24.576c8.806 15.155 14.336 33.382 14.336 52.634v651.264c0 57.549-46.694 104.243-104.243 104.243z" />
<glyph unicode="&#xe92a;" glyph-name="account-icon" d="M516.915 454.554c133.939-0.205 242.483 108.339 242.688 242.074s-108.134 242.688-242.074 242.893c-133.939 0.205-242.483-108.339-242.688-242.074 0 0 0-0.205 0-0.205-0.205-133.939 108.339-242.483 242.074-242.688 0 0 0 0 0 0zM756.531-42.496v-1.024h-491.52v1.024c0 126.771 19.456 252.723 57.958 373.555h375.603c38.502-120.832 57.958-246.784 57.958-373.555z" />
<glyph unicode="&#xe92b;" glyph-name="location-icon" d="M512 939.52c-190.054 0-344.064-154.010-344.064-344.064 0-258.048 344.064-638.976 344.064-638.976s344.064 380.928 344.064 638.976c0 190.054-154.010 344.064-344.064 344.064zM512 472.576c-67.789 0-122.88 55.091-122.88 122.88s55.091 122.88 122.88 122.88 122.88-55.091 122.88-122.88-55.091-122.88-122.88-122.88z" />
<glyph unicode="&#xe92c;" glyph-name="mail-icon" d="M930.636 886.452c-15.974 14.336-38.912 18.022-58.573 9.83l-763.085-321.331c-28.262-11.878-41.574-44.442-29.901-72.704 5.53-13.312 15.974-23.962 29.286-29.491l262.144-113.254 312.934 250.88-214.63-338.944 141.517-248.013c10.445-18.227 30.31-29.082 51.405-27.853l3.482 0.205c22.118 2.662 40.55 18.227 46.899 39.526l234.906 794.010c5.939 20.48-0.41 42.803-16.384 57.139z" />
<glyph unicode="&#xe92d;" glyph-name="phone-icon" d="M735.437 939.52h-446.874c-49.357-0.205-89.293-40.141-89.293-89.293v-804.25c0.205-49.357 40.141-89.293 89.293-89.293h446.874c49.357 0.205 89.293 40.141 89.293 89.293v804.25c0 49.152-39.936 89.088-89.293 89.293zM735.437 90.624h-446.874v714.957h446.874v-714.957z" />
<glyph unicode="&#xe92e;" glyph-name="20-plus" d="M599.040 177.869l-474.522-212.173h-43.827l-37.274 83.558 190.054 312.934c28.467 46.694 37.274 87.245 21.504 122.47-16.998 38.093-57.754 52.838-102.81 32.768-49.766-22.323-65.126-66.765-37.888-127.59 5.734-12.698 1.434-21.709-8.397-26.010l-85.402-38.093v302.49c0.205 0.205 0.41 0.205 0.614 0.41 18.842 13.312 40.55 25.6 65.126 36.659 159.539 71.475 295.322 9.83 341.606-94.003 36.25-81.306 27.238-158.106-29.491-249.446l-23.142-37.478c-10.854-17.818-32.563-40.346-32.563-40.346l0.819-1.843 189.030 84.582c5.939 2.662 17.203-1.638 19.866-7.578l54.272-121.446c2.662-5.939-1.638-17.203-7.578-19.866zM872.243-34.304h-92.774l-15.155 50.381-106.701-32.358-25.6 84.992 106.701 32.358-31.949 105.267 85.197 25.6 31.744-105.267 106.701 32.358 25.6-85.197-106.701-32.154zM807.936 939.52h-26.829c-24.986-1.229-50.995-5.734-77.619-13.722-173.466-52.429-240.845-215.040-184.115-403.046s202.957-286.106 376.422-233.677c42.189 12.698 78.234 32.154 107.52 56.73v493.158c-50.995 61.030-118.579 96.666-195.379 100.557zM848.691 445.133c-62.669-18.842-114.688 34.816-144.589 133.325-29.696 98.509-16.179 172.237 46.49 191.078s114.688-34.816 144.589-133.325c29.696-98.509 16.179-172.032-46.49-191.078zM599.040 177.869l-474.522-212.173h-43.827l-37.274 83.558 190.054 312.934c28.467 46.694 37.274 87.245 21.504 122.47-16.998 38.093-57.754 52.838-102.81 32.768-49.766-22.323-65.126-66.765-37.888-127.59 5.734-12.698 1.434-21.709-8.397-26.010l-84.787-37.888v302.694c18.842 13.312 40.55 25.6 65.126 36.659 159.539 71.475 295.322 9.83 341.606-94.003 36.25-81.306 27.238-158.106-29.491-249.446l-23.142-37.478c-10.854-17.818-32.563-40.346-32.563-40.346l0.819-1.843 189.030 84.582c5.939 2.662 17.203-1.638 19.866-7.578l54.272-121.446c2.662-5.939-1.638-17.203-7.578-19.866zM849.306 41.677l22.938-75.981h-92.774l-15.155 50.381-106.701-32.358-25.6 84.992 106.701 32.358-31.949 105.267 85.197 25.6 31.744-105.267 106.701 32.358 25.6-85.197zM606.618 197.734l-54.272 121.446c-2.662 5.939-13.926 10.24-19.866 7.578l-189.030-84.582-0.819 1.843c0 0 21.709 22.528 32.563 40.346l23.142 37.478c56.73 91.136 65.741 168.141 29.491 249.446-46.285 103.834-182.067 165.478-341.606 94.003-24.576-11.059-46.080-23.347-65.126-36.659-0.205-0.205-0.41-0.205-0.614-0.41v-302.49l0.614 0.205 84.787 37.888c9.83 4.301 13.926 13.312 8.397 26.010-27.238 60.826-11.878 105.267 38.093 127.59 45.056 20.070 85.606 5.325 102.81-32.768 15.77-35.226 6.758-75.776-21.504-122.47l-190.259-312.934 37.274-83.558h44.032l474.522 212.173c5.734 2.662 10.035 13.926 7.373 19.866zM1003.52 838.963c-51.2 61.030-118.784 96.666-195.584 100.557-8.806 0.41-17.818 0.41-26.829 0-24.986-1.229-50.995-5.734-77.619-13.722-173.466-52.429-240.845-215.040-184.115-403.046s202.957-286.106 376.422-233.677c42.189 12.698 78.234 32.154 107.52 56.73 0 0 0.205 0.205 0.205 0.205v492.749c0 0 0 0 0 0.205zM848.691 445.133c-62.669-18.842-114.688 34.816-144.589 133.325-29.696 98.509-16.179 172.237 46.49 191.078s114.688-34.816 144.589-133.325c29.696-98.509 16.179-172.032-46.49-191.078zM956.006 73.83l-25.6 84.992-106.701-32.154-31.744 105.267-85.197-25.6 31.744-105.267-106.701-32.154 25.6-84.992 106.701 32.154 15.155-50.381h92.774l-22.938 75.981 106.906 32.154z" />
<glyph unicode="&#xe92f;" glyph-name="35on4" d="M525.312 680.038c-18.432 45.466-55.91 82.33-111.411 88.269l-1.024 2.662c21.504 30.106 25.6 72.704 9.83 111.206-8.602 20.89-22.323 40.96-41.37 57.344h-267.059c-40.96-19.866-71.68-44.442-93.798-71.27v-181.043l121.037 49.152c7.782 3.277 10.035 10.24 7.373 19.251-7.987 29.491 4.71 55.91 42.394 71.27 36.864 14.95 67.584 6.963 78.643-20.070 10.65-26.214 0.614-51.814-44.032-69.837l-79.667-32.358c-5.325-2.048-9.421-11.878-7.168-17.203l37.274-91.955c1.843-4.301 11.674-8.602 16.794-6.349l101.581 41.165c43.827 17.818 65.536 4.301 73.523-14.95 11.059-27.238-6.554-61.85-56.32-82.125-46.49-18.842-78.438-12.493-94.413 16.589-4.506 8.397-11.469 10.65-19.251 7.373l-127.795-52.019c-9.626-3.891-12.902-13.517-9.626-21.299 34.816-85.811 144.384-139.264 297.574-77.005 163.226 66.765 204.8 180.429 166.912 273.203zM769.638 851.866c-27.034-8.192-63.693-27.443-81.101-43.008-0.819-0.205-1.843 0.41-1.843 0.41l-11.469 62.054 216.474 65.331c1.434 0.41 2.867 1.434 4.096 2.867h-391.578l40.755-245.146c2.048-9.626 7.987-11.469 15.77-12.698l112.026-13.312c13.312-1.434 23.962 3.482 36.659 12.902 26.010 18.022 44.646 29.286 69.222 36.659 42.394 12.698 71.27-0.614 78.848-26.010 7.373-24.576-6.758-53.658-50.79-66.97-36.454-11.059-68.198-3.072-83.968 8.806-4.915 4.096-10.445 6.963-20.48 3.891l-115.917-35.021c-9.216-2.867-15.974-14.131-13.312-23.347 22.938-76.186 139.469-119.398 271.36-79.462 82.125 24.781 136.602 73.114 158.925 131.482v126.976c-26.624 72.909-111.411 130.458-233.677 93.594zM233.882 105.165c-46.285 61.235-122.675 57.139-181.248 12.698-12.288-9.421-23.142-19.866-32.154-31.334v-130.048h206.848c35.021 43.213 43.622 99.533 6.554 148.685zM149.914-10.547c-20.48-15.36-45.67-11.469-59.802 7.168s-11.059 44.032 9.421 59.392c20.48 15.36 45.67 11.469 59.802-7.168s10.854-44.032-9.421-59.392zM519.987 190.566l-79.258 104.653c-32.973 43.418-80.486 55.501-130.048 18.022-23.142-17.408-37.274-41.984-41.779-67.174l-1.434-1.024-11.674 7.987c-4.301 2.867-9.626 4.506-13.312 1.843l-49.971-38.093c-2.662-2.048-3.891-10.65-1.843-13.312l126.157-166.707c2.048-2.662 10.65-3.891 13.312-1.843l59.392 44.851c2.662 2.048 3.891 10.65 1.843 13.312l-72.704 96.256c-3.277 17.203 4.506 35.43 17.818 45.466 12.083 9.011 25.805 9.011 36.25-4.71l72.704-96.256c2.048-2.662 10.65-3.891 13.312-1.843l59.392 45.056c2.662 2.253 3.686 10.854 1.843 13.517zM1003.52 141.824l-6.349 21.299c-1.638 5.12-10.24 9.83-15.36 8.192l-45.67-13.722-88.883 294.298-173.466-52.429-149.504-379.085 19.251-63.898h191.078l87.859 26.624 7.987-26.624h166.093c0 0.205 0 0.41-0.205 0.614l-21.504 71.885 28.672 8.602v104.243zM711.066 89.6c-9.216-2.867-28.262-10.445-28.262-10.445l-1.434 1.434c0 0 11.264 14.541 16.384 25.19l37.683 95.437c4.506 9.626 12.902 42.598 12.902 42.598l3.686 0.205c0 0 8.397-37.069 11.264-46.49l25.6-84.582-77.824-23.347z" />
<glyph unicode="&#xe930;" glyph-name="1000-plus" d="M57.139 415.846c-12.902-4.71-25.19-10.24-36.659-16.384v-442.982h336.077c59.597 69.632 71.27 171.213 31.13 280.166-57.344 156.467-186.163 232.243-330.547 179.2zM204.186 15.872c-52.224-19.251-98.918 23.757-129.229 105.882-30.106 82.125-22.323 144.998 29.696 164.25 52.224 19.251 98.918-23.757 129.229-105.882s22.528-144.998-29.696-164.25zM29.286 686.387l95.846-65.126c6.758-3.686 17.613 0.819 21.504 6.554l55.706 82.534 2.253-0.205 128-314.982c2.253-5.325 13.517-10.24 19.046-7.987l135.373 55.091c5.325 2.253 10.24 13.722 7.987 19.046l-194.355 478.208h-118.989l-157.491-235.315c-1.024-1.434-1.434-3.072-1.434-5.12-0.205-4.506 2.458-10.035 6.554-12.698zM789.094 472.576c147.251 44.442 204.595 182.477 156.262 342.016-14.95 49.357-37.069 91.546-65.126 124.723h-371.507c-56.73-65.946-71.27-162.611-39.117-268.493 48.128-159.334 172.237-242.688 319.488-198.246zM666.010 880.538c53.248 15.974 97.485-29.491 122.675-113.254s13.722-146.227-39.526-162.202c-53.248-15.974-97.28 29.491-122.675 113.254-25.19 83.763-13.722 146.227 39.526 162.202zM887.398 105.37l-101.99-30.925c-5.325-31.13-21.914-53.043-50.381-61.645-53.248-15.974-97.28 29.491-122.675 113.254-25.19 83.763-13.722 146.227 39.526 162.202 44.851 13.517 83.149-16.794 109.363-76.595l86.221 26.010-26.829 88.883-6.554 21.504 40.346 12.288c-61.645 64.307-147.251 89.088-242.483 60.211-147.251-44.442-204.595-182.682-156.262-342.221 14.541-48.128 36.045-89.293 62.874-122.061h376.013c10.035 12.083 18.842 25.19 26.010 39.322l-6.349 21.299-26.829 88.474zM1003.52 261.427l-38.707-11.674-33.382 110.592-89.498-27.034 33.382-110.592-106.086-31.949c1.843-5.12 3.482-10.24 5.12-15.77 6.963-23.142 11.264-44.646 12.493-64.102l3.482-11.469 112.026 33.792 31.744-105.267 1.434-4.506 67.994 20.48v77.414l-11.674 38.912 11.674 3.482v97.69z" />
<glyph unicode="&#xe931;" glyph-name="EU-icon" d="M542.31 131.789l-59.392 132.71c-2.458 5.53-13.312 9.83-18.842 7.168l-280.371-125.338-18.842 41.984 252.314 112.845c5.53 2.458 9.83 13.312 7.168 18.842l-59.392 132.71c-2.458 5.53-13.312 9.83-18.842 7.168l-252.314-112.64-18.842 41.984 280.166 125.338c5.53 2.458 9.83 13.312 7.168 18.842l-59.392 132.71c-2.458 5.53-13.312 9.83-18.842 7.168l-263.578-117.965v-598.835h164.864l349.594 156.262c5.734 2.662 9.83 13.312 7.373 19.046zM999.629 939.52h-54.272l-157.901-65.946c-5.734-2.253-9.011-10.445-6.554-15.974l111.616-267.264c32.358-77.414 15.36-132.301-43.213-156.672-57.549-24.166-109.568 1.843-141.926 79.462l-111.411 267.059c-2.458 5.734-10.445 9.011-15.974 6.554l-192.717-80.486c-5.734-2.458-9.011-10.445-6.554-15.974l113.664-271.974c76.595-183.091 236.544-244.941 430.080-164.045 29.286 12.288 55.706 26.214 79.053 41.574v634.47l-3.891 9.216zM344.474 870.912l-90.931 14.541-27.648 54.067h-30.72l-26.419-54.067-92.979-12.493 68.198-66.15-16.589-92.979 82.739 43.418 84.787-43.418-16.589 90.931 66.15 66.15zM645.12 939.52h-210.125l37.274-36.25-16.589-92.979 82.944 43.418 84.787-43.418-16.589 90.931 38.298 38.298zM582.042-3.379l-43.418 84.787-41.37-84.787-93.184-12.493 28.672-27.853h214.426l25.805 25.805-90.931 14.541zM1001.472 66.458l-90.931 14.541-43.418 84.787-41.37-84.787-93.184-12.493 68.198-66.15-8.192-45.875h150.528l-7.987 43.827 66.355 66.15z" />
<glyph unicode="&#xe932;" glyph-name="production-capacity" d="M405.299-43.52h210.739l-29.901 73.523zM798.72 316.109l-205.619-83.763 69.427-171.213 42.598-104.653h241.050l-77.824 188.416zM922.829 769.741l-188.211-76.595 71.066-174.899 69.632-171.008 69.632-171.213 58.573-144.179v588.186c0 0.819-0.205 1.843-0.614 2.662l-55.296 136.602c-3.891 9.83-14.95 14.336-24.781 10.445zM417.178 312.013l140.902-59.392 86.426 204.8-143.36 60.416c4.096 32.768 4.506 66.355 0.614 99.942l144.179 58.573-83.763 205.619-141.722-57.549c-22.733 30.72-49.357 57.958-78.848 81.101l14.336 33.997h-316.621c-10.445 0-18.842-8.397-18.842-18.842v-199.68c1.024 0.41 2.048 0.819 2.867 1.024 35.84 12.902 73.318 12.288 106.906 0.614 6.758-2.253 13.312-5.12 19.661-8.397 32.973-16.589 60.416-44.237 75.776-80.691 0.205-0.41 0.41-1.024 0.614-1.434s0.41-0.819 0.41-1.024c16.384-40.346 15.36-83.354 0.205-120.832-0.614-1.843-1.434-3.482-2.253-5.325-14.95-33.792-41.574-62.464-76.8-79.667-2.253-1.229-4.71-2.253-7.168-3.277-0.819-0.41-1.843-0.819-2.662-1.024-37.683-15.36-77.824-15.36-113.459-3.072l-4.506 1.638v-266.24c0-2.867 1.843-5.53 4.506-6.554v0c17.408-2.253 35.021-3.277 52.838-3.277 19.046 0 38.093 1.229 57.344 3.891l57.549-141.722 206.234 83.968-58.573 143.974c29.286 22.938 55.296 49.357 77.21 78.438z" />
<glyph unicode="&#xe933;" glyph-name="easy-ordering" d="M1003.52 648.499c-15.565-55.296-30.515-107.93-45.466-160.563-24.986-88.474-50.176-176.947-75.162-265.421-7.373-25.805-13.517-30.31-39.731-30.31-164.659 0-329.523 0-494.182 0-26.624 0-32.768 4.506-39.936 29.901-43.827 157.286-87.654 314.368-131.072 471.654-2.458 8.806-5.734 11.674-14.95 11.674-43.213-0.41-86.221-0.205-129.434-0.205-4.301 0-8.397 0-13.312 0 0 19.456 0 37.683 0 57.139 3.277 0.205 6.554 0.819 9.83 0.614 60.826-0.205 121.651-0.614 182.272-0.205 8.806 0 11.469-3.482 13.107-10.854 6.963-31.334 14.541-62.464 21.299-93.798 1.434-6.554 3.482-10.24 11.264-10.24 93.798 0.205 284.262 0.614 285.491 0.614-15.565 15.36-45.875 45.056-45.875 45.056l107.315 106.701 104.038-104.858c0 0-30.72-31.949-46.899-46.899 0.614-1.024-0.614 1.024 0 0 112.64 0 227.123 0 341.402 0zM830.054 690.688c-57.139 0-103.219 45.67-103.629 102.81s46.49 103.834 104.038 103.834c57.139 0 103.219-45.875 103.424-103.014 0.205-57.754-45.67-103.629-103.834-103.629zM852.378 48.64c0-47.309-37.888-84.992-85.197-84.992s-86.016 38.912-85.606 86.221c0.41 46.899 38.912 84.582 86.016 84.378 47.309-0.205 84.787-38.093 84.787-85.606zM424.96-36.352c-47.309-0.205-85.197 37.478-85.197 84.787 0 47.718 37.069 85.402 84.173 85.811 47.514 0.205 86.63-38.298 86.426-85.402-0.205-46.694-38.707-85.197-85.402-85.197zM404.48 932.352l17.203-83.149 82.33-21.914-73.933-42.189 4.71-84.992-63.078 57.139-79.258-30.515 34.816 77.414-53.658 66.15 84.582-9.421z" />
<glyph unicode="&#xe934;" glyph-name="fast-shipping" d="M20.48 477.696c0 0 131.072 0.205 151.962-0.205 7.782-0.205 10.65 2.458 10.24 10.24-0.41 11.469-0.614 23.142 0 34.611 0.41 8.602-3.277 10.65-11.264 10.65-40.96-0.205-137.216-0.205-137.216-0.205v51.405c0 0 49.766 0 74.547 0 15.565 0 15.565 0 15.565 15.77 0 9.011-0.41 17.818 0.205 26.829 0.41 8.192-2.458 11.264-10.854 11.059-21.504-0.41-77.824-0.205-77.824-0.205v49.766c0 0 4.301-0.205 51.61-0.205 10.035-0.41 12.698 3.072 12.493 12.698-0.614 23.347-0.205 46.694-0.205 70.861 167.117 0 333.005 0 500.736 0 0-34.816 0-69.837 0-106.496 6.144 0 10.445 0 14.746 0 64.717 0 129.638 0.205 194.355-0.205 4.915 0 11.059-2.048 14.746-5.53 57.549-55.091 114.893-110.387 171.827-166.093 3.891-3.891 6.758-10.65 6.758-16.179 0.41-83.354 0.205-166.912 0.41-250.266 0-9.011-2.253-12.288-11.674-12.083-25.6 0.614-51.2 0.205-77.619 0.205-2.048-28.877-12.493-52.838-34.816-70.656-15.36-12.083-32.768-18.637-52.429-19.251-25.395-0.819-47.309 7.782-65.741 25.19-18.227 17.203-26.010 39.322-28.058 63.898-3.686 0.205-6.758 0.614-9.626 0.614-103.424 0.41-207.053 0.614-310.477 1.229-7.373 0-12.288-0.41-13.312-10.035-5.12-46.080-42.189-80.282-86.426-80.896-46.285-0.614-84.173 31.744-91.546 78.234-0.614 3.686-0.819 7.373-1.434 12.288-39.526 0-78.848 0-119.603 0-0.205 5.939-0.614 10.445-0.614 15.155 0 61.030 0.205 122.061 0.205 183.296 0 7.578-6.144 14.541-14.131 14.541-21.504 0-65.536 0-65.536 0v49.971zM376.627 383.078c0 0 115.712 113.664 173.67 170.598-15.974 14.746-30.925 28.672-46.080 42.598-41.984-41.165-84.992-83.354-128.205-125.747-21.299 20.070-42.189 39.526-63.078 59.392-14.746-15.77-28.467-30.106-43.008-45.466 35.635-33.792 106.701-101.376 106.701-101.376zM694.272 474.829c4.096-0.205 7.168-0.614 10.035-0.614 63.488-0.41 127.181-0.819 190.669-0.819 4.506 0 10.24-0.205 12.902 5.939 4.096 9.011-9.421 20.070-20.48 31.334-28.672 28.672-41.984 41.37-71.475 69.222-4.096 3.891-10.854 6.554-16.589 6.554-31.13 0.614-62.464 0.41-93.594 0.205-3.686 0-7.168-0.41-11.264-0.614-0.205-37.478-0.205-73.728-0.205-111.206z" />
<glyph unicode="&#xe935;" glyph-name="product-variety" d="M938.598 573.133c-122.266-40.346-243.507-80.077-366.182-120.627-40.141 121.856-80.077 243.302-120.627 366.182 122.061 40.141 243.712 80.282 366.387 120.627 40.141-122.061 79.872-243.098 120.422-366.182zM435.814 586.854c0-114.483-91.136-203.776-207.667-203.776-110.182 0-200.909 92.774-200.499 205.414 0.614 115.302 95.846 204.595 208.896 202.957 108.954-1.638 199.475-93.184 199.27-204.595zM782.336 389.018c32.973 0 65.741-0.205 98.714 0.205 6.963 0 10.65-2.253 14.131-8.397 32.973-57.754 66.56-115.098 99.328-173.056 2.048-3.482 2.048-10.24 0-13.926-32.973-58.163-66.56-116.122-100.352-173.67-2.048-3.686-7.987-7.168-12.083-7.168-66.97-0.41-133.939-0.205-200.909-0.41-6.144 0-9.421 1.843-12.493 7.168-32.973 57.754-66.355 115.302-99.738 172.851-3.482 5.939-3.482 10.445 0 16.589 33.382 57.549 66.765 115.098 99.738 172.851 3.277 5.939 7.373 7.168 13.517 7.168 33.587-0.41 66.97-0.205 100.147-0.205zM99.533 246.067c137.83 45.261 273.818 90.112 412.672 135.987-29.696-142.95-58.982-283.238-88.678-425.37-108.134 96.461-215.245 192.307-323.994 289.382z" />
<glyph unicode="" glyph-name="product-variety" d="M938.598 573.133c-122.266-40.346-243.507-80.077-366.182-120.627-40.141 121.856-80.077 243.302-120.627 366.182 122.061 40.141 243.712 80.282 366.387 120.627 40.141-122.061 79.872-243.098 120.422-366.182zM435.814 586.854c0-114.483-91.136-203.776-207.667-203.776-110.182 0-200.909 92.774-200.499 205.414 0.614 115.302 95.846 204.595 208.896 202.957 108.954-1.638 199.475-93.184 199.27-204.595zM782.336 389.018c32.973 0 65.741-0.205 98.714 0.205 6.963 0 10.65-2.253 14.131-8.397 32.973-57.754 66.56-115.098 99.328-173.056 2.048-3.482 2.048-10.24 0-13.926-32.973-58.163-66.56-116.122-100.352-173.67-2.048-3.686-7.987-7.168-12.083-7.168-66.97-0.41-133.939-0.205-200.909-0.41-6.144 0-9.421 1.843-12.493 7.168-32.973 57.754-66.355 115.302-99.738 172.851-3.482 5.939-3.482 10.445 0 16.589 33.382 57.549 66.765 115.098 99.738 172.851 3.277 5.939 7.373 7.168 13.517 7.168 33.587-0.41 66.97-0.205 100.147-0.205zM99.533 246.067c137.83 45.261 273.818 90.112 412.672 135.987-29.696-142.95-58.982-283.238-88.678-425.37-108.134 96.461-215.245 192.307-323.994 289.382z" />
<glyph unicode="weight-icon" glyph-name="weight-icon" d="M806.912 619.008h-174.899c31.949 31.334 52.019 74.752 52.019 122.88 0 94.822-77.21 172.032-172.032 172.032s-172.032-77.21-172.032-172.032c0-48.128 20.070-91.546 52.019-122.88h-174.899l-196.608-638.976h983.040l-196.608 638.976zM512 815.616c40.755 0 73.728-32.973 73.728-73.728s-32.973-73.728-73.728-73.728-73.728 32.973-73.728 73.728 32.973 73.728 73.728 73.728z" />
<glyph unicode="time-icon" glyph-name="time-icon" d="M512 939.52c-271.36 0-491.52-220.16-491.52-491.52s220.16-491.52 491.52-491.52 491.52 220.16 491.52 491.52-220.16 491.52-491.52 491.52zM486.4 331.059l-166.093 390.758 90.522 38.912 126.771-298.803 221.594 99.738 40.346-89.498-313.139-141.107z" />
<glyph unicode="teens-icon" glyph-name="teens-icon" d="M415.334 229.274c-49.971 0-96.666 26.829-121.856 70.246l-47.923-27.648c35.021-60.416 99.942-97.894 169.574-97.894 73.728 0 140.493 40.755 174.285 106.496l-49.152 25.19c-24.166-47.104-72.090-76.39-124.928-76.39zM1003.52 606.72h-219.341c-56.32 169.779-200.090 290.816-369.050 290.816-217.907 0-394.65-201.318-394.65-449.536s176.742-449.536 394.854-449.536c218.112 0 394.854 201.318 394.854 449.536 0 16.179-0.819 32.358-2.253 48.128h195.584v110.592zM706.355 448c0-190.669-130.662-345.907-291.021-345.907s-291.226 155.238-291.226 345.907c0 16.384 1.229 32.358 3.072 48.128h93.389v-97.28h98.304v97.28h196.608v-97.28h98.304v97.28h89.293c2.048-15.77 3.277-31.744 3.277-48.128z" />
<glyph unicode="skill-vocabulary" glyph-name="skill-vocabulary" d="M757.76 841.216h-638.976v-884.736h638.976c27.034 0 49.152 22.118 49.152 49.152v786.432c0 27.034-22.118 49.152-49.152 49.152zM551.731 524.186c31.539 0 53.658-13.722 64.922-33.382v30.515h77.21v-220.774h-77.21v30.515c-11.264-19.661-33.997-33.382-64.922-33.382-52.634 0-93.798 43.213-93.798 113.459s41.37 113.050 93.798 113.050zM254.771 578.253h88.883l101.171-277.709h-81.51l-15.155 45.261h-98.304l-14.746-45.261h-81.101l100.762 277.709zM299.213 494.694l-29.491-89.907h59.392l-29.901 89.907zM576.307 364.851c22.118 0 40.346 16.179 40.346 46.285s-18.227 45.67-40.346 45.67-39.731-15.77-39.731-45.67 18.227-46.285 39.731-46.285zM806.912 939.52h-638.976v-49.152h614.4c40.755 0 73.728-32.973 73.728-73.728v-811.008c27.238 0 49.152 21.914 49.152 49.152v786.432c0 54.272-44.032 98.304-98.304 98.304z" />
<glyph unicode="skill-strategic" glyph-name="skill-strategic" d="M967.68 665.498c11.469 62.054-29.491 121.856-91.546 133.325s-121.856-29.491-133.325-91.546c-11.469-62.054 29.491-121.856 91.546-133.325 6.758-1.229 13.312-1.638 20.070-1.638 15.565-47.309 48.538-190.669-93.184-266.035-108.134-57.139-154.010 6.554-226.304 124.109-66.56 108.134-149.504 242.688-323.379 156.467-119.603-59.187-169.984-209.51-156.672-320.717 10.65-89.907 60.006-153.19 131.482-169.165l16.179 71.885c-57.344 12.902-71.066 78.438-74.547 106.086-10.445 87.45 30.106 203.366 116.122 245.965 108.339 53.658 155.034-10.854 227.738-129.024 66.765-108.339 149.914-243.098 323.789-150.528 167.936 89.293 160.358 260.096 128.614 354.509 21.709 16.589 37.888 40.755 43.418 69.632zM633.446 410.522l45.466 31.13 31.13-45.466 60.621 41.779-31.13 45.261 45.466 31.13-41.779 60.826-45.261-31.13-31.13 45.466-60.826-41.779 31.13-45.466-45.466-31.13 41.779-60.621zM401.818 381.030l-45.261-31.13-31.13 45.261-60.826-41.574 31.13-45.466-45.466-31.13 41.779-60.826 45.466 31.13 31.13-45.261 60.621 41.574-31.13 45.466 45.466 31.13-41.779 60.826z" />
<glyph unicode="skill-social" glyph-name="skill-social" d="M512 939.52c-271.36 0-491.52-220.16-491.52-491.52s220.16-491.52 491.52-491.52 491.52 220.16 491.52 491.52-220.16 491.52-491.52 491.52zM155.648 521.728c0 74.752 60.416 135.168 135.168 135.168s135.168-60.416 135.168-135.168h-73.728c0 33.997-27.443 61.44-61.44 61.44s-61.44-27.443-61.44-61.44h-73.728zM512 116.224c-126.771 0-238.797 85.606-272.384 207.872l70.861 19.661c24.986-90.522 107.725-153.805 201.523-153.805s176.538 63.488 201.523 153.805l70.861-19.661c-33.382-122.47-145.408-207.872-272.384-207.872zM794.624 521.728c0 33.997-27.443 61.44-61.44 61.44s-61.44-27.443-61.44-61.44h-73.728c0 74.752 60.416 135.168 135.168 135.168s135.168-60.416 135.168-135.168h-73.728z" />
<glyph unicode="skill-sensory" glyph-name="skill-sensory" d="M419.226 444.928c0-52.429 42.598-95.027 94.822-95.027 52.429 0 94.822 42.598 94.822 95.027s-42.394 94.822-94.822 94.822c-52.429 0-94.822-42.598-94.822-94.822zM676.454 275.354c90.726 90.726 90.726 238.182 0 328.909-43.622 43.622-102.195 67.789-164.454 67.789-4.915 0-9.626-0.41-14.336-0.614-10.035 11.059-24.371 18.022-40.346 18.022-26.624 0-48.538-18.842-53.658-43.827-20.48-10.65-39.322-24.576-56.115-41.165-90.726-90.726-90.726-238.182 0-328.909l29.491 29.491c-74.547 74.547-74.547 195.584 0 270.131 10.854 10.854 23.142 20.070 36.045 27.853 10.035-13.722 26.010-22.938 44.442-22.938 28.672 0 52.019 22.323 54.272 50.381 0.205 0 0.205 0 0.41 0 51.2 0 99.328-19.661 135.168-55.501 74.547-74.547 74.547-195.584 0-270.131l29.082-29.491zM690.381 103.526l48.742 48.742-137.626 132.71h-179.61c0-0.41-0.205-0.614-0.205-1.024l-136.806-131.891 48.742-48.742 81.51 46.49c0-3.891 0.205-7.578 0.205-11.469v-174.080h192.922v174.080c0 3.891 0.205 7.987 0.205 11.878l81.92-46.694zM790.118 689.459c-5.12 0-9.83-0.819-14.541-2.253-2.662 2.867-4.915 5.734-7.782 8.602-141.107 141.107-370.688 141.107-511.795 0-67.789-67.789-102.605-155.853-105.267-244.941-18.432-8.806-31.13-27.443-31.13-49.152 0-26.010 18.227-47.718 42.598-53.248 15.565-60.211 46.694-117.35 93.798-164.454l29.491 29.491c-40.755 40.755-67.994 90.112-82.125 142.131 15.36 9.626 25.805 26.829 25.805 46.285 0 23.962-15.36 44.032-36.659 51.405 3.277 77.619 33.997 154.214 92.979 213.197 124.928 124.928 328.090 124.928 453.018 0 1.434-1.434 2.662-3.072 4.301-4.71-4.506-7.987-7.373-17.203-7.373-27.034 0-30.31 24.576-54.682 54.682-54.682 3.072 0 6.144 0.41 9.011 0.819 21.094-43.213 32.563-91.136 32.563-141.107 0-86.016-33.178-166.502-93.184-226.509l29.491-29.491c113.254 113.254 135.373 283.648 66.765 419.43 6.349 9.011 10.035 19.661 10.035 31.539 0 30.31-24.371 54.682-54.682 54.682zM975.462 276.582c18.022 51.405 28.058 106.496 28.058 163.226 0 270.95-220.57 491.52-491.52 491.52-128.205 0-244.941-49.357-332.595-129.843-6.758 2.867-14.131 4.506-21.709 4.506-30.31 0-54.682-24.576-54.682-54.682 0-10.24 3.072-19.661 7.987-27.853-56.934-80.282-90.522-177.971-90.522-283.648 0-199.27 118.989-377.446 302.899-453.837l15.974 38.502c-168.346 69.837-277.299 233.062-277.299 415.334 0 96.256 30.515 185.344 82.125 258.458 4.301-1.024 8.806-1.843 13.517-1.843 30.31 0 54.682 24.576 54.682 54.682 0 7.168-1.434 14.131-4.096 20.275 80.077 73.318 186.778 118.17 303.514 118.17 248.013 0 449.946-201.933 449.946-449.946 0-52.224-9.216-102.81-26.010-150.118-28.467-2.048-50.79-25.395-50.79-54.272 0-11.674 3.686-22.528 10.035-31.334-48.333-78.438-120.422-142.131-209.715-179.405l15.974-38.298c97.28 40.55 175.923 109.773 228.762 195.174 3.277-0.614 6.349-1.024 9.83-1.024 30.31 0 54.682 24.576 54.682 54.682 0.205 16.998-7.373 31.539-19.046 41.574z" />
<glyph unicode="skill-physical" glyph-name="skill-physical" d="M431.514 677.581c47.718 0 86.63 38.707 86.63 86.63s-38.912 86.426-86.63 86.426c-47.718 0-86.63-38.707-86.63-86.63s38.707-86.426 86.63-86.426zM974.643 65.638l28.877 80.691-404.275 144.384-57.344 250.675 363.315 104.243-23.552 82.33c-272.794-81.51-551.322-141.926-833.331-180.634l-27.853-3.686 13.926-84.582 357.581 58.982 23.552-255.181-383.181-137.011 28.877-80.691 459.981 145.203 453.427-124.723z" />
<glyph unicode="skill-memory" glyph-name="skill-memory" d="M877.978 769.126l-27.238 27.853c-80.486 73.728-185.754 120.627-302.285 125.542-6.758 0-13.312 0.41-20.070 0.41v-32.973c-32.973 44.442-101.99 53.658-143.77 2.867l-0.41-0.41c16.794-4.71 32.973-12.493 47.514-24.371 32.154-26.829 46.49-68.403 42.189-123.085l-22.118 1.434-3.277 0.41-22.118 1.434c19.456 107.725-130.048 142.541-173.466 60.211-9.626-18.227-12.902-36.864-11.878-57.549 0.41-17.203-6.758-22.938-22.938-18.637-19.661 5.325-38.707 4.301-58.368-2.867-45.056-15.77-72.704-66.15-60.826-112.64v-0.41c73.318 18.227 131.686-10.035 135.168-11.878l-21.504-42.598c-1.638 0.819-25.6 12.083-59.802 12.902-73.728 1.638-134.554-58.163-131.891-131.891 0-0.41 0-0.819 0-1.229 0.41-14.746 3.277-28.262 7.578-40.755 4.71-11.059 9.626-21.094 13.926-28.672 9.011-14.336 21.504-26.829 36.454-38.298 0.41-0.41 0.41-0.41 1.024-1.024h0.41c32.358 40.96 73.114 72.090 80.282 77.414l28.672-38.298c-23.552-17.613-55.091-46.49-77.414-76.186-12.698-16.794-17.818-38.502-13.517-59.187 0.205-1.229 0.614-2.458 0.819-3.482 7.168-28.467 30.925-49.971 60.006-55.091 75.366-13.312 141.722 37.888 144.589 40.755l29.696-37.888c-2.458-1.843-39.322-30.72-91.955-45.466h-0.41c-1.024-3.891-1.024-8.192 0.41-14.746 0.41-2.458 1.024-4.301 1.434-6.758 12.493-54.067 67.584-86.63 120.218-71.885 16.384 4.301 29.286 13.312 42.189 22.938 7.168 5.734 16.794 4.301 21.504-1.024 5.325-6.144 3.891-16.384-3.277-22.528-11.469-9.626-23.552-18.637-37.274-23.552-9.626-3.277-7.578-6.758-3.277-12.493 40.141-51.2 111.206-46.899 145.613 1.434v-35.43c6.758 0 13.312 0.41 20.070 0.41 116.326 4.71 221.798 51.814 302.285 125.542l27.238 27.853c74.138 80.077 120.627 185.958 125.338 302.285v39.322c-4.71 116.326-51.2 222.208-125.542 302.285zM860.365 154.522v0l-83.763 83.763-28.262-28.672 83.763-84.378-4.301-4.301c-73.318-67.584-167.731-108.339-266.854-115.507v341.197l-15.77 8.602-16.794 9.626-90.112 49.766-179.2 99.533 11.469 20.685 11.878 21.094 274.637-152.371 3.891 1.434 234.701 88.678-15.36 40.755-219.341-76.595v430.899c99.123-7.168 193.536-47.923 266.854-115.507l2.867-2.867-82.33-82.33 28.262-28.672 82.33 82.33c67.584-75.162 106.701-172.442 111.616-273.408h-102.605v-40.141h102.605v-0.41c-4.301-101.171-43.213-198.042-110.182-273.203z" />
<glyph unicode="skill-knowledge" glyph-name="skill-knowledge" d="M512 939.52c-221.594 0-408.986-146.842-470.221-348.365-13.107-35.021-21.299-73.318-21.299-115.507 0-4.71 0.614-9.011 0.819-13.517-0.205-4.71-0.819-9.421-0.819-14.131 0-271.565 219.955-491.52 491.52-491.52s491.52 219.955 491.52 491.52-219.955 491.52-491.52 491.52zM512 20.378c-109.978 0-210.125 42.189-285.901 110.592 11.878 30.31 29.901 58.163 50.176 84.173 0.205 0.205 0.41 0.614 0.614 0.819 20.685 37.478-3.891 90.726-12.288 106.906-0.819 14.541-3.277 29.082-7.782 43.008-10.65 16.589-26.010 29.491-44.032 37.069-13.926 22.118-23.347 46.899-27.648 72.704-0.819 16.998 12.083 31.539 29.286 32.358 0.41 0 1.024 0 1.434 0 25.395 4.915 47.718 19.661 62.464 40.755 22.323 5.325 42.189 17.818 56.73 35.635 11.674 20.48 0.819 63.283-7.987 90.112 3.686 18.227 3.072 37.069-2.253 55.091-7.168 17.203-18.842 32.358-33.587 43.622-4.506 10.445-9.83 20.48-15.77 30.31 58.368 38.912 126.771 63.693 200.499 70.042-0.614-6.144-0.205-12.288 1.229-18.432 8.806-15.36 23.347-26.829 40.55-31.744-4.096-20.89 2.458-42.394 17.408-57.549 16.998-10.854 46.899 3.277 57.139-4.915h0.41c8.397-10.854 2.253-35.43 1.638-53.043-0.205-4.915 1.638-9.83 4.915-13.517 4.096-4.506 40.755-44.032 81.101-49.562 2.253-0.205 4.301-0.41 6.554-0.41 36.659 0 78.029 39.731 92.979 55.706 21.299 5.12 42.189 11.264 63.078 18.227 60.416-73.728 96.666-167.936 96.666-270.336 0-235.725-191.898-427.622-427.622-427.622zM827.187 425.677c-12.288 29.082-67.789 53.453-95.232 63.693l-27.648 25.19c-1.434 1.229-2.867 2.253-4.506 3.072-27.443 10.65-56.525 17.203-85.811 19.251-14.95 9.421-31.13 16.998-47.923 22.733-27.443 1.024-54.886-3.686-80.486-13.722-3.891-1.229-7.168-3.482-9.83-6.758-20.685-24.986-69.018-87.040-69.018-120.422 0-18.842 16.589-34.202 35.635-52.224 7.987-6.963 15.36-14.541 21.914-22.938 0.614-5.939 2.048-12.902 3.891-21.504 3.482-16.179 10.445-50.176 3.277-61.030-23.347-41.984-28.262-91.75-13.926-137.626 5.53-18.432 19.866-32.973 38.298-38.912 4.71-1.229 9.626-1.843 14.336-1.843 32.563 0 70.246 26.010 104.038 49.152 11.674 8.806 24.166 16.589 37.274 23.347 31.13 12.083 45.466 50.79 55.706 78.848 2.048 5.734 4.301 11.469 6.758 16.794 15.155 19.251 35.021 34.816 57.344 44.851 35.021 16.998 71.68 92.57 55.91 130.048z" />
<glyph unicode="skill-intuition" glyph-name="skill-intuition" d="M930.202 591.565c-0.41 52.634-31.539 122.88-31.539 122.88-33.382 87.45-96.256 142.541-159.744 176.947-53.043 29.082-112.026 45.261-171.008 47.104-8.397 0.41-17.203 1.024-26.010 1.024v-1.024c-63.488-1.434-125.747-19.251-181.862-52.634-201.523-121.242-165.478-360.243-165.478-360.243l-104.243-182.886 117.965-34.406v-198.656h159.334v-153.19h367.206l4.915 231.424c12.698 10.24 24.166 20.685 35.43 30.925 96.256 72.704 158.72 189.645 158.72 320.922-0.205 17.818-1.229 35.021-3.686 51.814zM650.65 505.958c-40.346-39.731-64.922-95.232-64.922-156.262 0 122.47-98.714 221.184-221.184 221.184 61.030 0 116.531 24.576 156.262 64.922 40.346 39.731 64.922 95.232 64.922 156.262 0-61.030 24.576-116.531 64.922-156.262 39.731-40.346 95.232-64.922 156.262-64.922-61.030 0-116.531-24.576-156.262-64.922z" />
<glyph unicode="skill-intelligence" glyph-name="skill-intelligence" d="M444.621 729.805c20.685-13.926 36.864-28.672 48.742-42.394v208.486c0 17.408-10.65 33.178-26.829 39.117 0 0-0.205 0-0.205 0.205-19.661 7.373-43.213 5.12-71.475-6.758-13.107-5.53-26.624-11.469-40.141-17.613 41.984-17.203 59.802-60.211 60.416-62.054-1.229 0.614-31.949-13.722-33.792-13.517-17.408 41.574-61.645 59.392-105.677 35.226-46.49-25.6-65.946-58.163-60.621-101.99 34.816 3.072 66.765-8.397 91.546-33.587 33.587-33.587 48.128-87.654 36.454-134.144-0.819 0.614-35.635 8.806-35.226 8.806 8.806 34.816-2.253 74.752-27.034 99.738-14.131 14.336-38.707 29.696-75.981 20.48h-0.205c-132.506-18.432-208.077-283.034-81.51-364.134 32.973-21.094 82.534 17.613 82.944 17.818 0.819-1.434 19.251-30.106 20.070-30.31-1.843-1.229-40.55-26.829-84.378-26.829-9.626 0-19.661 1.229-29.696 4.301-11.059 3.686-21.299 9.011-30.31 16.589-13.926-50.381-3.277-91.75 33.587-129.434 14.541-14.746 24.986-38.298 26.829-59.802 4.096-49.971 26.010-83.354 68.813-104.858 2.458-1.229 5.53-2.458 8.397-3.686 10.24-4.301 23.142-9.83 30.31-21.299 41.165-69.222 205.824-134.963 239.616 32.973 0.819 5.53 1.229 10.65 1.229 15.565 0 18.022-5.12 32.768-15.155 44.237-15.36 17.818-44.237 28.467-77.005 28.672-1.229 0.819 0.819 35.635-0.41 36.454 38.298 0 72.090-11.264 95.232-31.539v468.992c-0.41 0.819-0.819 1.434-1.229 2.458s-18.842 41.165-67.584 73.523c-0.205-1.638 20.275 29.082 20.275 30.31zM361.882 295.834c2.662-1.229-70.451-1.638-97.485-76.8 20.48-5.325 45.466-16.589 58.982-41.984 21.504-40.141 20.48-97.485 20.48-99.942 0.614 0.205-36.25 0.205-36.454 0.819 0 0.614 0.819 50.381-15.974 82.125-10.65 19.661-37.683 24.781-48.742 26.214 0 0-0.205 0-0.205 0-10.65 1.229-18.637 10.65-18.022 21.299 0.205 3.891 0.614 7.373 0.819 8.602 25.19 91.955 100.557 116.122 136.806 116.122-1.434-1.024 0.614-33.792-0.205-36.454zM425.984 517.018c-2.662-1.638-29.696-18.227-64.922-31.539l-43.418-75.776c0 1.229-32.768 17.613-31.539 18.022l24.986 43.418c-10.65-2.048-21.299-3.072-31.744-3.072-29.901 0-58.163 9.011-77.824 35.226-0.819-0.205 29.901 22.323 29.082 21.914 23.552-31.334 72.704-22.118 113.050-7.373 34.406 12.493 62.464 29.696 63.078 30.106 1.024-1.638 19.456-32.358 19.251-30.925zM599.45 700.109c-48.538-32.358-67.174-72.499-67.584-73.523-0.41-0.819-0.819-1.638-1.229-2.458v-468.378c23.142 20.275 56.934 31.539 95.232 31.539-1.229-0.819 0.819-35.635-0.41-36.454-32.768 0-61.44-10.854-77.005-28.672-10.035-11.469-15.155-26.214-15.155-44.237 0-4.915 0.614-10.24 1.229-15.565 33.792-167.936 198.451-102.195 239.616-32.973 7.373 11.469 20.275 16.998 30.31 21.299 2.867 1.024 5.734 2.458 8.397 3.686 42.803 21.504 64.717 54.886 68.813 104.858 1.843 21.504 12.288 45.056 26.829 59.802 36.864 37.683 47.514 79.053 33.587 129.434-9.011-7.373-19.046-12.902-30.31-16.589-10.035-3.072-20.070-4.301-29.696-4.301-43.622 0-82.534 25.395-84.378 26.829 0.819 0.205 19.251 28.877 20.070 30.31 0.614-0.205 49.971-38.912 82.944-17.818 126.566 80.896 50.995 345.702-81.51 364.134v0c-37.069 9.011-61.645-6.144-75.981-20.48-24.781-24.986-35.635-64.922-27.034-99.738 0.41 0-34.406-8.192-35.226-8.806-11.674 46.694 2.867 100.557 36.454 134.144 24.781 24.781 56.73 36.25 91.546 32.973 5.325 43.622-14.131 76.186-60.621 101.99-43.827 23.962-88.064 6.349-105.677-35.226-1.843-0.205-32.563 14.131-33.792 13.517 0.819 1.843 18.432 44.851 60.416 62.054-13.517 6.144-27.034 12.288-40.141 17.613-28.467 11.878-51.814 14.131-71.475 6.758 0 0-0.205 0-0.205-0.205-16.179-5.939-26.829-21.914-26.829-39.117v-208.691c12.083 13.722 28.058 28.672 48.742 42.394 0-1.024 20.48-31.744 20.070-30.106zM662.118 332.902c36.25 0 111.616-24.166 136.806-116.122 0.41-1.434 0.614-4.71 0.819-8.602 0.614-10.854-7.168-20.070-18.022-21.299 0 0-0.205 0-0.205 0-11.059-1.434-38.298-6.554-48.742-26.214-16.998-31.744-15.974-81.51-15.974-82.125-0.205-0.41-37.069-0.41-36.454-0.819 0 2.458-1.024 59.802 20.48 99.942 13.517 25.395 38.502 36.864 58.982 41.984-27.034 75.162-100.147 75.571-97.485 76.8-1.024 2.662 1.024 35.43-0.205 36.454zM617.267 548.557c0.614-0.41 28.672-17.408 63.078-30.106 40.346-14.95 89.498-23.962 113.050 7.373-0.819 0.614 29.901-21.914 29.082-21.914-19.661-26.214-47.923-35.226-77.824-35.226-10.445 0-21.094 1.024-31.744 3.072l24.986-43.418c1.229-0.41-31.539-16.794-31.539-18.022l-43.418 75.776c-35.226 13.312-62.259 29.901-64.922 31.539-0.205-1.434 18.227 29.286 19.251 30.925z" />
<glyph unicode="skill-imagination" glyph-name="skill-imagination" d="M924.672 816.64c0-67.865-55.015-122.88-122.88-122.88s-122.88 55.015-122.88 122.88c0 67.865 55.015 122.88 122.88 122.88s122.88-55.015 122.88-122.88zM258.867 720.179l74.547 21.504 60.006-49.152 2.662 77.619 65.331 41.984-73.114 26.419-19.661 75.162-47.718-61.44-77.414 4.506 43.622-64.307zM929.997 591.565c-0.41 15.155-2.867 31.949-6.963 47.718h-334.234l83.354 83.354-111.206 111.206-111.206-111.206 83.354-83.354h-335.462c-10.854-64.922-3.482-113.459-3.482-113.459l-104.038-183.091 117.965-30.31v-202.752h159.334v-153.19h367.206l4.915 231.424c12.698 10.24 24.166 20.685 35.43 30.925 96.256 72.704 158.72 189.645 158.72 320.922-0.205 17.818-1.229 35.021-3.686 51.814z" />
<glyph unicode="skill-diction" glyph-name="skill-diction" d="M1003.52 450.048c0 221.594-220.16 400.998-491.52 400.998s-491.52-179.405-491.52-400.998 220.16-400.998 491.52-400.998c108.544 0 208.896 28.467 289.997 77.619l159.334-81.51-53.658 166.707c60.006 66.56 95.846 148.685 95.846 238.182zM277.504 366.899c-40.755 0-73.728 32.973-73.728 73.728 0 40.346 32.973 73.728 73.728 73.728s73.728-33.382 73.728-73.728c0-40.755-32.973-73.728-73.728-73.728zM512 366.899c-40.755 0-73.728 32.973-73.728 73.728 0 40.346 32.973 73.728 73.728 73.728s73.728-33.382 73.728-73.728c0-40.755-32.973-73.728-73.728-73.728zM747.52 366.899c-40.755 0-73.728 32.973-73.728 73.728 0 40.346 32.973 73.728 73.728 73.728s73.728-33.382 73.728-73.728c0-40.755-32.973-73.728-73.728-73.728z" />
<glyph unicode="skill-dexterity" glyph-name="skill-dexterity" d="M696.73 101.478c-54.886-29.901-117.965-46.694-184.73-46.694-216.678 0-393.216 176.538-393.216 393.216s176.538 393.216 393.216 393.216c216.678 0 393.216-176.538 393.216-393.216 0-66.765-16.794-129.843-46.694-184.73 1.434-1.024 2.458-2.048 3.482-2.867l1.024-1.024 73.318-57.958c42.598 72.499 67.174 156.672 67.174 246.579 0 271.36-219.75 491.52-491.52 491.52-271.36 0-491.52-220.16-491.52-491.52 0-271.77 220.16-491.52 491.52-491.52 89.907 0 174.080 24.576 246.17 66.765l-58.573 74.752c-0.819 1.024-1.843 2.458-2.867 3.482zM708.608 372.838l64.307-61.85c21.709 40.755 33.997 87.45 33.997 137.011 0 162.611-131.686 294.912-294.912 294.912-162.611 0-294.912-132.301-294.912-294.912 0-163.226 132.301-294.912 294.912-294.912 49.562 0 96.256 12.288 137.216 33.997l-61.44 63.898-11.264 11.264c-20.070-6.963-41.779-10.854-64.307-10.854-108.134 0-196.608 88.064-196.608 196.608 0 108.134 88.474 196.608 196.608 196.608 108.544 0 196.608-88.474 196.608-196.608 0-22.528-3.891-44.237-10.854-64.307 3.277-4.096 7.168-7.373 10.65-10.854zM832.512 220.467c-1.434 1.024-2.458 2.048-3.891 2.867-2.458 3.482-7.373 4.506-13.312 4.506-2.458 0-4.915 0-7.373-0.41h-2.048c-26.624 0-42.189 23.552-60.006 41.37l-71.27 68.608c-24.576 23.552-48.128 47.718-71.68 72.294 4.915 11.878 7.373 24.576 7.373 38.298 0 54.067-43.827 98.304-98.304 98.304-54.067 0-98.304-44.237-98.304-98.304 0-54.477 44.237-98.304 98.304-98.304 13.722 0 26.624 2.458 38.298 7.373 24.576-23.552 48.742-47.104 72.294-71.68l68.813-71.27c18.227-18.227 42.189-33.997 41.37-61.85-0.41-5.325-0.41-11.264 0.41-15.155 0.41-2.458 1.434-3.891 2.867-5.325l111.002-135.168 116.531 116.531-131.072 107.315z" />
<glyph unicode="skill-creativity" glyph-name="skill-creativity" d="M710.373 591.823l155.677 155.677 69.511-69.511-155.677-155.677-69.511 69.511zM97.536 677.767l69.511 69.511 155.677-155.677-69.511-69.511-155.677 155.677zM478.003 881.152h98.304v-220.16h-98.304v220.16zM97.32 88.974l155.677 155.677 69.511-69.511-155.677-155.677-69.511 69.511zM710.362 175.070l69.511 69.511 155.677-155.677-69.511-69.511-155.677 155.677zM20.48 423.424h220.16v-98.304h-220.16v98.304zM783.36 423.424h220.16v-98.304h-220.16v98.304zM563.2 544.051c-12.698 4.096-26.214 5.734-39.322 8.397h-21.094c-1.843-0.41-3.686-0.819-5.734-0.819-18.637-2.048-36.454-6.758-53.248-15.36-41.574-21.094-69.222-54.477-86.016-97.894-19.661-50.995-15.565-99.533 12.493-146.022 10.24-16.794 21.504-32.768 33.178-48.538 9.626-13.107 16.589-26.010 20.89-41.37h10.65l14.336-82.944h25.19c2.048-20.070 18.432-35.635 38.912-35.635s36.864 15.77 38.912 35.635h25.19l14.336 82.944h10.445c4.506 17.613 14.746 32.358 25.19 46.899 15.36 21.094 30.72 42.189 40.96 66.56 10.65 25.19 14.95 51.405 11.674 78.643-2.867 24.371-10.854 47.104-22.118 68.608-20.89 39.117-52.019 67.174-94.413 81.101z" />
<glyph unicode="skill-coordination" glyph-name="skill-coordination" d="M664.576 859.034c1.434-7.987 2.048-15.974 2.048-24.576 0-27.443-6.963-53.453-20.070-75.981 133.939-53.453 229.376-184.934 229.376-337.92 0-18.022-1.434-35.43-4.506-52.429 37.069-8.397 69.018-30.515 90.522-60.416 9.011 36.045 13.926 73.933 13.926 112.845 0.205 202.547-130.253 374.989-311.296 438.477zM130.458 370.381c6.963 1.434 13.926 2.048 21.504 2.048-3.072 15.565-4.096 31.949-4.096 48.538 0 152.986 95.027 284.467 229.376 337.92-12.493 21.504-19.456 46.49-19.456 72.499-0.41 1.024-0.41 2.458-0.41 3.482 0 8.397 0.41 16.384 2.048 24.576-180.838-63.488-311.296-235.93-311.296-438.272 0-29.082 2.458-56.934 7.987-84.378 20.89 16.998 46.285 29.082 74.342 33.587zM716.595 119.501c-58.573-39.526-129.024-62.874-204.39-62.874-85.402 0-163.84 29.491-225.894 79.462-18.432-29.491-46.49-52.429-79.872-64.512 81.92-71.475 188.826-114.893 305.766-114.893 113.459 0 217.293 40.96 297.779 108.544-37.274 6.144-69.837 26.214-93.389 54.272zM861.184 319.386c-7.578 2.048-15.974 3.072-24.576 3.072-57.549 0-104.858-46.899-104.858-104.858 0-24.986 9.011-48.538 23.962-66.355 19.456-23.552 48.538-38.502 80.896-38.502 8.397 0 16.998 1.024 24.986 3.072v0.41c46.080 11.059 79.872 52.429 79.872 101.376 0 7.578-1.024 14.95-2.458 21.914-8.397 39.322-38.912 70.246-77.824 79.872zM248.422 170.291c7.578 14.541 11.469 29.901 11.469 46.899 0 55.501-43.418 100.966-97.894 104.448-2.048 0.41-4.506 0.41-6.963 0.41-6.554 0-12.902-0.41-19.046-1.434-18.432-3.482-35.43-12.083-49.562-23.962-5.939-5.53-11.469-11.469-15.974-18.022-12.902-16.998-20.48-38.502-20.48-61.44 0-57.549 46.899-104.858 104.858-104.858 3.482 0 6.554 0 9.421 0.41 22.938 2.048 44.032 12.083 60.416 26.419 9.626 8.806 17.613 19.251 23.757 31.13zM512.205 729.6c35.021 0 65.946 17.408 84.992 44.442 12.493 16.998 19.456 38.093 19.456 60.416 0 13.926-3.072 27.443-7.987 39.936-15.36 38.093-52.838 65.126-96.461 65.126-44.032 0-81.92-27.034-97.485-65.536-4.915-12.493-7.578-25.395-7.578-39.526 0-22.528 6.963-43.418 19.046-60.416 19.661-26.829 50.586-44.442 86.016-44.442z" />
<glyph unicode="skill-competitive" glyph-name="skill-competitive" d="M794.010 449.229c116.531 6.144 209.51 101.786 209.51 219.955s-79.872 199.885-184.32 217.498v52.838h-614.4v-52.838c-104.448-17.613-184.32-107.93-184.32-217.498s92.979-213.811 209.51-219.955c40.96-94.618 128-164.25 232.858-181.248v-114.893h-196.608v-196.608h491.52v196.608h-196.608v114.893c104.858 16.998 192.102 86.63 232.858 181.248zM905.216 669.184c0-54.886-36.25-100.762-86.016-116.531v233.062c49.766-15.77 86.016-61.85 86.016-116.531zM118.784 669.184c0 54.886 36.25 100.762 86.016 116.531v-233.267c-49.766 15.77-86.016 61.85-86.016 116.531z" />
<glyph unicode="skill-collaboration" glyph-name="skill-collaboration" d="M999.834 180.122c-12.493 58.573-57.754 104.448-115.507 118.374-11.059 3.072-23.757 4.506-36.25 4.506-37.683 0-72.090-14.131-99.328-36.864l-169.779 121.242v214.835c61.85 20.48 106.291 78.234 106.291 146.227 0 11.059-1.434 22.323-3.686 32.563-12.493 58.573-57.754 104.448-115.507 118.579-11.059 2.867-23.757 4.506-36.25 4.506-85.197 0-155.443-69.632-155.443-155.443 0-37.069 13.312-71.885 35.635-98.509 18.432-22.323 43.213-38.502 70.861-47.923v-212.378l-203.162-125.133c-18.432 16.179-40.55 28.058-65.331 34.202-11.059 3.072-23.757 4.506-36.25 4.506-85.197 0-155.443-69.632-155.443-155.443 0-37.069 13.312-71.885 35.635-98.509 28.877-34.816 71.885-56.934 120.013-56.934 12.493 0 25.19 1.434 37.069 4.506v0.819c68.198 16.384 118.579 77.824 118.579 150.323 0 11.059-1.434 22.118-3.686 32.358l200.090 123.085 168.96-120.627c-2.662-11.264-4.301-22.938-4.301-35.021 0-37.069 13.312-71.885 35.635-98.509 28.877-34.816 71.885-56.934 120.013-56.934 12.493 0 25.19 1.434 37.069 4.506v0.819c68.198 16.384 118.579 77.824 118.579 150.323-0.819 10.445-2.253 21.504-4.506 31.949z" />
<glyph unicode="skill-attention" glyph-name="skill-attention" d="M512 784.691c-228.966 0-423.117-141.107-491.52-336.691 68.403-195.584 262.554-336.691 491.52-336.691s423.117 141.107 491.52 336.691c-68.403 195.584-262.554 336.691-491.52 336.691zM512 241.152c-114.483 0-206.848 92.365-206.848 206.848s92.365 206.848 206.848 206.848c114.483 0 206.848-92.365 206.848-206.848s-92.365-206.848-206.848-206.848zM615.629 448c0-56.934-46.694-103.629-103.629-103.629s-103.629 46.694-103.629 103.629v4.506c7.782-2.867 16.794-4.506 26.010-4.506 42.803 0 77.619 34.816 77.619 77.619 0 9.421-1.434 18.227-4.506 26.010h4.506c56.934 0 103.629-46.694 103.629-103.629z" />
<glyph unicode="skill-association" glyph-name="skill-association" d="M342.835 69.939h242.893l27.238 75.776h-290.406l20.275-75.776zM467.763-43.52c41.574 0 75.162 33.587 75.162 75.162h-150.528c0-41.574 33.587-75.162 75.162-75.162zM814.49 676.966c-5.325 45.466-34.406 74.342-74.138 74.957-41.37 0.614-70.656-27.443-77.414-74.342h-74.138v93.184c-12.083 0-23.142 0-34.406 0-23.962 0-40.96 15.77-40.96 37.274 0 21.709 16.794 37.478 40.55 37.683 10.854 0 21.914 0 34.406 0v84.378c0 5.12 4.096 9.421 9.421 9.421 97.075 0 194.15 0 291.226 0 0-87.45 0-174.899 0-262.349 0 0 0 0 0 0-24.781 0-48.947 0-74.547 0zM472.064 338.637v-148.070h-168.755c0 17.613-48.947 133.734-83.354 168.96-53.248 54.477-79.462 122.47-84.787 198.246 0 1.843 0 3.686 0 6.554h149.709c0 12.083 0 23.142 0 34.406 0 23.962 15.565 40.755 37.274 40.96 21.709 0 37.478-16.794 37.888-40.55 0-10.854 0-21.914 0-33.997h112.026v-74.342c-48.742-9.216-74.752-36.454-74.342-77.21 0.41-39.731 27.648-67.174 74.547-74.957zM631.194 189.952h-120.422v186.982c-11.878 0-23.142 0-34.202 0-23.962 0-40.96 15.36-41.37 36.864-0.205 22.323 16.794 37.888 41.37 38.093 10.854 0 21.709 0 33.382 0v112.026h113.050c0 12.902 0 24.371 0 36.045 0.205 22.938 16.179 39.526 37.683 39.526 21.299 0 37.069-16.794 37.478-39.731 0-11.264 0-22.528 0-35.226h112.23c-1.638-43.213-11.264-82.944-28.467-121.037-23.142-51.405-58.368-92.979-102.4-127.59-22.938-18.022-48.333-107.11-48.333-125.952zM472.269 901.427v-92.57c-24.371-1.843-45.261-11.264-60.006-31.334-10.854-14.746-15.565-31.334-14.541-49.562 2.253-37.888 30.925-64.922 74.342-70.246v-55.091h-73.523c-8.192 47.514-35.84 74.342-76.186 74.342s-67.584-26.624-76.186-74.547h-108.749c1.843 140.493 135.782 305.971 334.643 299.008z" />
<glyph unicode="skill-artistic" glyph-name="skill-artistic" d="M894.566 371.61c-59.392-16.179-125.338-9.83-184.32 23.962-102.605 58.368-148.070 186.368-105.882 296.755 14.131 36.659 36.045 67.994 63.078 92.57 30.106 27.648 19.251 78.438-20.070 89.498-0.41 0.205-0.614 0.205-1.229 0.41-248.627 69.632-506.675-75.162-576.717-323.789s74.752-506.88 323.584-576.922c248.627-69.837 506.88 74.957 576.717 323.584 0.205 0.614 0.41 0.819 0.41 1.434 12.493 44.851-30.515 84.787-75.571 72.499zM252.109 651.366c19.661 43.418 71.27 62.669 114.688 42.803s62.669-71.27 42.803-114.893c-19.866-43.418-71.27-62.669-114.893-42.803s-62.464 71.475-42.598 114.893zM186.573 300.339c-43.418 19.866-62.464 71.27-42.598 114.893 19.866 43.418 71.27 62.464 114.688 42.803 43.418-19.866 62.669-71.27 42.803-114.893-19.866-43.418-71.27-62.669-114.893-42.803zM454.861 123.187c-19.866-43.622-71.27-62.669-114.688-42.803-43.622 19.866-62.669 71.27-42.803 114.688 19.866 43.622 71.27 62.669 114.893 42.803 43.418-20.070 62.464-71.27 42.598-114.688zM719.462 132.813c-19.866-43.418-71.27-62.669-114.893-42.803-43.418 19.866-62.464 71.27-42.803 114.893 19.866 43.418 71.27 62.669 114.893 42.803s62.874-71.475 42.803-114.893zM883.712 911.667l-87.654-188.826h0.41c29.082 6.758 59.392-3.891 78.029-27.443v0l87.654 188.826c7.578 21.709-3.891 45.261-25.6 52.838v0c-21.709 7.578-45.261-3.686-52.838-25.395zM729.702 639.078c13.926 40.141 57.754 61.645 97.894 47.718s61.645-57.754 47.718-97.894-84.992-64.717-100.762-147.046c-66.97 60.621-58.778 156.877-44.851 197.222z" />
</font>
</defs>
</svg>
